<?xml version="1.0" standalone="no"?>
<!DOCTYPE svg PUBLIC "-//W3C//DTD SVG 1.1//EN" "http://www.w3.org/Graphics/SVG/1.1/DTD/svg11.dtd" >
<svg xmlns="http://www.w3.org/2000/svg">
<metadata></metadata>
<defs>
<font id="courier_prime_sansregular" horiz-adv-x="1228" >
<font-face units-per-em="2048" ascent="1638" descent="-410" />
<missing-glyph horiz-adv-x="500" />
<glyph horiz-adv-x="0" />
<glyph horiz-adv-x="682" />
<glyph unicode=" " />
<glyph unicode="!" d="M489 53v154q0 34 29.5 48.5t95.5 14.5t95.5 -14.5t29.5 -48.5v-154q0 -34 -29.5 -48.5t-95.5 -14.5t-95.5 14.5t-29.5 48.5zM508 1219q-2 26 8 38t33 12h130q23 0 33 -12t8 -38l-49 -707q-2 -23 -16.5 -35.5t-40.5 -12.5t-41.5 12.5t-16.5 35.5z" />
<glyph unicode="&#x22;" d="M261 1219q-6 50 41 50h164q42 0 42 -39l-1 -11l-55 -450q-3 -26 -20.5 -40t-47.5 -14q-29 0 -47 14t-21 40zM721 1219q-6 50 41 50h164q42 0 42 -39l-1 -11l-55 -450q-3 -26 -20.5 -40t-47.5 -14q-29 0 -47 14t-21 40z" />
<glyph unicode="#" d="M60 404q0 39 14.5 55.5t48.5 16.5h197l64 245h-191q-34 0 -48.5 16.5t-14.5 55.5t14.5 55.5t48.5 16.5h228l81 311q4 16 19.5 24.5t34.5 8.5q28 0 50 -15t22 -39q0 -3 -2 -13l-72 -277h261l81 311q4 16 19.5 24.5t34.5 8.5q28 0 50 -15t22 -39q0 -3 -2 -13l-72 -277h157 q34 0 48.5 -16.5t14.5 -55.5t-14.5 -55.5t-48.5 -16.5h-194l-64 -245h188q34 0 48.5 -16.5t14.5 -55.5t-14.5 -55.5t-48.5 -16.5h-226l-83 -321q-4 -16 -19.5 -24.5t-34.5 -8.5q-28 0 -50 15t-22 39q0 3 2 13l75 287h-262l-83 -321q-4 -16 -19.5 -24.5t-34.5 -8.5 q-28 0 -50 15t-22 39q0 3 2 13l75 287h-160q-34 0 -48.5 16.5t-14.5 55.5zM453 476h261l64 245h-261z" />
<glyph unicode="$" d="M178 275q0 19 12 44q24 47 54 47q15 0 31 -9q121 -67 263 -87v276q-128 15 -198 42q-71 28 -110.5 79t-39.5 133q0 88 44.5 151t123.5 97t180 38v161q0 34 16.5 49.5t53.5 15.5t53.5 -15.5t16.5 -49.5v-167q164 -18 288 -81q40 -20 40 -57q0 -20 -10 -43q-23 -50 -54 -50 q-10 0 -30 9q-110 57 -234 75v-250q129 -13 206 -41q77 -29 120.5 -82.5t43.5 -142.5q0 -87 -42 -153t-125.5 -104t-202.5 -42v-178q0 -34 -16.5 -49.5t-53.5 -15.5t-53.5 15.5t-16.5 49.5v184q-180 17 -321 94q-39 22 -39 57zM344 800q0 -47 45 -70t149 -34v244 q-92 -5 -143 -41t-51 -99zM678 264q107 6 161.5 46.5t54.5 106.5q0 53 -52 79t-164 36v-268z" />
<glyph unicode="%" d="M50 935q0 74 37 137t100 100t137 37t137 -37t100 -100t37 -137t-37 -137t-100 -100t-137 -37t-137 37t-100 100t-37 137zM105 183q0 24 24 46l874 830q22 22 45 22q26 0 50 -27q25 -27 25 -49q0 -23 -24 -46l-874 -830q-22 -22 -45 -22q-26 0 -50 27q-25 27 -25 49z M180 935q0 -39 19.5 -72t52.5 -52.5t72 -19.5t72 19.5t52.5 52.5t19.5 72t-19.5 72t-52.5 52.5t-72 19.5t-72 -19.5t-52.5 -52.5t-19.5 -72zM630 252q0 74 37 137t100 100t137 37t137 -37t100 -100t37 -137t-37 -137t-100 -100t-137 -37t-137 37t-100 100t-37 137zM760 252 q0 -39 19.5 -72t52.5 -52.5t72 -19.5t72 19.5t52.5 52.5t19.5 72t-19.5 72t-52.5 52.5t-72 19.5t-72 -19.5t-52.5 -52.5t-19.5 -72z" />
<glyph unicode="&#x26;" d="M167 310q0 101 51 180.5t145 144.5q-99 112 -99 255q0 89 41 162t117 115t176 42q158 0 297 -87q34 -21 34 -51q0 -21 -16 -50q-24 -43 -53 -43q-15 0 -34 12q-107 71 -229 71q-55 0 -95.5 -23t-62 -62t-21.5 -86q0 -52 21.5 -99t63.5 -93l301 -327q49 99 84 227 q7 26 20.5 37t38.5 11q13 0 31 -3q32 -5 46 -17.5t14 -32.5q0 -12 -5 -32q-54 -182 -124 -304l154 -167q19 -22 19 -39q0 -27 -43 -51q-31 -18 -52 -18q-22 0 -43 22l-120 131q-136 -157 -318 -157q-105 0 -181.5 45t-117 120.5t-40.5 166.5zM321 310q0 -52 23.5 -94t66 -66 t95.5 -24q123 0 218 116l-265 288q-72 -48 -105 -101t-33 -119z" />
<glyph unicode="'" d="M491 1219q-6 50 41 50h164q42 0 42 -39l-1 -11l-55 -450q-3 -26 -20.5 -40t-47.5 -14q-29 0 -47 14t-21 40z" />
<glyph unicode="(" d="M297 517q0 200 68.5 370t176.5 292.5t229 195.5q11 6 21 6q16 0 30.5 -11t25.5 -29q17 -29 17 -54q0 -20 -13 -29q-173 -114 -290 -300t-117 -441t116.5 -439t290.5 -298q13 -9 13 -29q0 -25 -17 -54q-11 -18 -25.5 -29t-30.5 -11q-10 0 -21 6q-122 73 -229.5 194.5 t-176 290.5t-68.5 369z" />
<glyph unicode=")" d="M363 -249q0 20 13 29q174 114 290.5 298t116.5 439t-117 441t-290 300q-13 9 -13 29q0 25 17 54q11 18 25.5 29t30.5 11q10 0 21 -6q121 -73 229 -195.5t176.5 -292.5t68.5 -370t-68.5 -369t-176 -290.5t-229.5 -194.5q-11 -6 -21 -6q-16 0 -30.5 11t-25.5 29 q-17 29 -17 54z" />
<glyph unicode="*" d="M191 869q0 18 6 37q10 31 28.5 47.5t42.5 16.5q17 0 40 -10l256 -121l-36 280q-1 5 -1 13q0 36 22.5 56.5t64.5 20.5t64.5 -20.5t22.5 -56.5q0 -8 -1 -13l-36 -280l256 121q23 10 40 10q24 0 42.5 -16.5t28.5 -47.5q6 -19 6 -37q0 -28 -17 -46.5t-49 -25.5l-277 -53 l195 -208q25 -28 25 -55q0 -36 -42 -66q-30 -21 -55 -21q-20 0 -37.5 12t-30.5 34l-135 245l-135 -245q-26 -45 -68 -45q-26 0 -55 20q-42 32 -42 66q0 27 25 55l195 208l-277 53q-32 7 -49 25.5t-17 46.5z" />
<glyph unicode="+" d="M170 582q0 39 14.5 55.5t48.5 16.5h309v309q0 34 16.5 48.5t55.5 14.5t55.5 -14.5t16.5 -48.5v-309h309q34 0 48.5 -16.5t14.5 -55.5t-14.5 -55.5t-48.5 -16.5h-309v-309q0 -34 -16.5 -48.5t-55.5 -14.5t-55.5 14.5t-16.5 48.5v309h-309q-34 0 -48.5 16.5t-14.5 55.5z " />
<glyph unicode="," d="M372 -244q0 4 2 16l94 482q4 19 17.5 29.5t34.5 10.5h194q17 0 26 -9.5t9 -24.5q0 -14 -7 -29l-212 -484q-18 -41 -86 -41q-72 0 -72 50z" />
<glyph unicode="-" d="M170 582q0 39 14.5 55.5t48.5 16.5h762q34 0 48.5 -16.5t14.5 -55.5t-14.5 -55.5t-48.5 -16.5h-762q-34 0 -48.5 16.5t-14.5 55.5z" />
<glyph unicode="." d="M479 53v184q0 34 31.5 48.5t103.5 14.5t103.5 -14.5t31.5 -48.5v-184q0 -34 -31.5 -48.5t-103.5 -14.5t-103.5 14.5t-31.5 48.5z" />
<glyph unicode="/" d="M198 -302q0 8 3 17l672 1643q7 16 24.5 26t40.5 10q40 0 66 -15t26 -38q0 -8 -3 -17l-672 -1643q-7 -16 -24.5 -26t-40.5 -10q-40 0 -66 15t-26 38z" />
<glyph unicode="0" d="M190 593q0 184 52 323.5t148 216t224 76.5t224 -76.5t148 -216t52 -323.5t-52 -323t-148 -215.5t-224 -76.5t-224 76.5t-148 215.5t-52 323zM344 593q0 -146 34.5 -251.5t95.5 -160.5t140 -55t140 55t95.5 160.5t34.5 251.5t-34.5 251.5t-95.5 161t-140 55.5t-140 -55.5 t-95.5 -161t-34.5 -251.5z" />
<glyph unicode="1" d="M220 916q0 34 31 52l377 232q20 12 40 12q22 0 36.5 -14.5t14.5 -40.5v-1013h255q34 0 48.5 -16.5t14.5 -55.5t-14.5 -55.5t-48.5 -16.5h-674q-34 0 -48.5 16.5t-14.5 55.5t14.5 55.5t48.5 16.5h269v850l-249 -155q-17 -10 -31 -10q-32 0 -55 41q-14 24 -14 46z" />
<glyph unicode="2" d="M197 68q0 38 15 54l440 446q92 93 129.5 156t37.5 135q0 93 -59.5 147.5t-168.5 54.5q-66 0 -137 -25t-134 -69q-16 -12 -34 -12q-33 0 -58 41q-17 29 -17 49q0 28 30 50q76 54 168 84t181 30q116 0 202.5 -41.5t133.5 -120.5t47 -188q0 -102 -49.5 -188.5t-154.5 -193.5 l-328 -333h513q34 0 48.5 -16.5t14.5 -55.5t-14.5 -55.5t-48.5 -16.5h-694q-34 0 -48.5 15.5t-14.5 52.5z" />
<glyph unicode="3" d="M181 154q0 20 17 49q26 42 58 42q16 0 34 -13q66 -49 143 -77.5t155 -28.5q124 0 190 59t66 160q0 103 -66.5 156.5t-184.5 53.5h-73q-34 0 -48.5 15.5t-14.5 52.5t14.5 52.5t48.5 15.5h55q114 0 173 48t59 140q0 85 -59 133.5t-167 48.5q-132 0 -264 -80 q-18 -10 -32 -10q-32 0 -56 43q-14 27 -14 48q0 32 32 51q163 96 333 96q115 0 201 -40.5t133 -115t47 -174.5q0 -86 -40 -148.5t-113 -99.5q90 -37 140 -110.5t50 -175.5q0 -109 -48.5 -192t-140.5 -129t-221 -46q-98 0 -198 34t-179 92q-30 22 -30 50z" />
<glyph unicode="4" d="M145 376q0 32 12 49l484 723q21 32 46.5 46.5t63.5 14.5q87 0 87 -78v-685h162q34 0 48.5 -16.5t14.5 -55.5t-14.5 -55.5t-48.5 -16.5h-162v-247q0 -35 -16.5 -50t-57.5 -15h-2q-41 0 -57.5 15t-16.5 50v247h-478q-34 0 -49.5 18t-15.5 56zM342 446h346l8 546z" />
<glyph unicode="5" d="M188 149q0 22 16 48q26 42 58 42q16 0 34 -13q65 -46 141 -73t151 -27q81 0 141.5 32.5t92.5 91t32 136.5q0 74 -30 131t-86 89t-130 32q-68 0 -122 -17.5t-105 -53.5q-16 -10 -50 -10q-42 0 -59.5 15t-15.5 50l20 500q2 35 18 50t57 15h534q34 0 48.5 -16.5t14.5 -55.5 t-14.5 -55.5t-48.5 -16.5h-466l-13 -313q100 56 215 56q120 0 207.5 -51t133.5 -141.5t46 -207.5t-51.5 -210t-147 -145.5t-221.5 -52.5q-96 0 -193 32t-176 87q-31 23 -31 52z" />
<glyph unicode="6" d="M203 512q0 173 73 327t233 256.5t408 113.5q27 1 42.5 -18t15.5 -70q0 -31 -9.5 -44.5t-27.5 -14.5q-266 -14 -409 -137.5t-171 -335.5q52 68 128 105t162 37q110 0 198 -47t138 -133t50 -198q0 -108 -50.5 -193.5t-143.5 -133.5t-214 -48q-109 0 -200 50t-147 145 q-76 131 -76 339zM372 368q0 -70 31.5 -125t89 -86t133.5 -31t133.5 28t89 79.5t31.5 119.5q0 69 -31 121t-88 80.5t-135 28.5q-73 0 -131 -27.5t-90.5 -76t-32.5 -111.5z" />
<glyph unicode="7" d="M199 1115q0 39 14.5 55.5t48.5 16.5h704q34 0 48.5 -15.5t14.5 -52.5q0 -24 -6 -40l-426 -1055q-9 -23 -28.5 -34.5t-46.5 -11.5q-37 0 -59 14.5t-22 39.5q0 9 5 24l404 987h-588q-34 0 -48.5 16.5t-14.5 55.5z" />
<glyph unicode="8" d="M210 340q0 99 54.5 174t145.5 116q-74 40 -118.5 104t-44.5 145q0 92 47.5 167.5t131.5 119t188 43.5t188 -43.5t131.5 -119t47.5 -167.5q0 -81 -45 -145t-119 -104q92 -41 146.5 -116t54.5 -174q0 -103 -52 -185.5t-144.5 -129.5t-207.5 -47t-207.5 47t-144.5 129.5 t-52 185.5zM364 341q0 -62 32 -111t88.5 -76.5t129.5 -27.5t129.5 27.5t88.5 76.5t32 111t-32 110.5t-88.5 75.5t-129.5 27t-129.5 -27t-88.5 -75.5t-32 -110.5zM399 876q0 -51 28 -93t77.5 -66t109.5 -24t109.5 24t77.5 66t28 93q0 56 -28 98t-76.5 64.5t-110.5 22.5 t-110.5 -22.5t-76.5 -64.5t-28 -98z" />
<glyph unicode="9" d="M194 834q0 108 50.5 193.5t143.5 133.5t214 48q109 0 200 -50t147 -145q76 -131 76 -339q0 -173 -73 -327t-233 -256.5t-408 -113.5q-27 -1 -42.5 18t-15.5 70q0 31 9.5 44.5t27.5 14.5q266 14 409 137.5t171 335.5q-52 -68 -128 -105t-162 -37q-110 0 -198 47t-138 133 t-50 198zM348 834q0 -69 31 -121t88 -80.5t135 -28.5q73 0 131 27.5t90.5 76t32.5 111.5q0 70 -31.5 125t-89 86t-133.5 31t-133.5 -28t-89 -79.5t-31.5 -119.5z" />
<glyph unicode=":" d="M479 53v184q0 34 31.5 48.5t103.5 14.5t103.5 -14.5t31.5 -48.5v-184q0 -34 -31.5 -48.5t-103.5 -14.5t-103.5 14.5t-31.5 48.5zM479 687v184q0 34 31.5 48.5t103.5 14.5t103.5 -14.5t31.5 -48.5v-184q0 -34 -31.5 -48.5t-103.5 -14.5t-103.5 14.5t-31.5 48.5z" />
<glyph unicode=";" d="M392 -244q0 4 2 16l94 482q4 19 17.5 29.5t34.5 10.5h194q17 0 26 -9.5t9 -24.5q0 -14 -7 -29l-212 -484q-18 -41 -86 -41q-72 0 -72 50zM479 687v184q0 34 31.5 48.5t103.5 14.5t103.5 -14.5t31.5 -48.5v-184q0 -34 -31.5 -48.5t-103.5 -14.5t-103.5 14.5t-31.5 48.5z " />
<glyph unicode="&#x3c;" d="M125 583q0 29 11 45t36 29l777 381q18 9 34 9q35 0 58 -47q12 -24 12 -42q0 -33 -41 -53l-672 -322l672 -322q41 -20 41 -53q0 -18 -12 -42q-23 -47 -58 -47q-16 0 -34 9l-777 381q-25 13 -36 29t-11 45z" />
<glyph unicode="=" d="M170 382q0 39 14.5 55.5t48.5 16.5h762q34 0 48.5 -16.5t14.5 -55.5t-14.5 -55.5t-48.5 -16.5h-762q-34 0 -48.5 16.5t-14.5 55.5zM170 782q0 39 14.5 55.5t48.5 16.5h762q34 0 48.5 -16.5t14.5 -55.5t-14.5 -55.5t-48.5 -16.5h-762q-34 0 -48.5 16.5t-14.5 55.5z" />
<glyph unicode="&#x3e;" d="M175 208q0 33 41 53l672 322l-672 322q-41 20 -41 53q0 18 12 42q23 47 58 47q16 0 34 -9l777 -381q25 -13 36 -29t11 -45t-11 -45t-36 -29l-777 -381q-18 -9 -34 -9q-35 0 -58 47q-12 24 -12 42z" />
<glyph unicode="?" d="M262 1137q0 33 38 54q144 78 318 78q108 0 186.5 -39.5t120 -110t41.5 -163.5q0 -86 -34.5 -147.5t-102 -107t-176.5 -90.5l-13 -144q-5 -48 -66 -48q-63 0 -66 48l-13 198q-2 20 5.5 32t24.5 19l69 28q80 33 126.5 62t69 65t22.5 85q0 75 -50.5 120t-142.5 45 q-133 0 -261 -67q-15 -9 -31 -9q-33 0 -53 46q-12 27 -12 46zM459 53v114q0 34 27 48.5t88 14.5t88 -14.5t27 -48.5v-114q0 -34 -27 -48.5t-88 -14.5t-88 14.5t-27 48.5z" />
<glyph unicode="@" d="M50 389q0 194 79.5 351.5t218.5 247.5t312 90q153 0 268.5 -69.5t178.5 -193.5t63 -284q0 -116 -35 -205.5t-99 -139t-147 -49.5q-65 0 -111.5 33t-69.5 96q-52 -67 -99 -100.5t-110 -33.5q-49 0 -89.5 27t-63.5 77.5t-23 120.5q0 91 43 192t116 168.5t158 67.5 q86 0 128 -100l31 63q6 11 25 11q15 0 34 -7q20 -7 31.5 -19.5t7.5 -26.5l-77 -302q-7 -27 -7 -52q0 -42 20 -65.5t55 -23.5q75 0 118 73.5t43 194.5q0 130 -48 225.5t-136.5 147t-209.5 51.5q-136 0 -246.5 -74.5t-173 -203.5t-62.5 -288q0 -128 45 -222.5t132 -145.5 t210 -51q69 0 135.5 10t119.5 27q8 2 11 2q28 0 41 -45q5 -18 5 -28q0 -27 -24 -37q-54 -24 -129.5 -38t-156.5 -14q-159 0 -274 65.5t-176.5 187.5t-61.5 289zM458 359q0 -47 18 -70t48 -23q49 0 92.5 45.5t69.5 114.5t26 135q0 46 -20 71.5t-56 25.5t-78.5 -44.5t-71 -114 t-28.5 -140.5z" />
<glyph unicode="A" d="M100 53q0 13 6 31l394 1060q13 35 39 50t73 15t73 -15t39 -50l394 -1060q6 -18 6 -31q0 -19 -13.5 -32t-43.5 -23q-26 -8 -40 -8q-20 0 -33 11t-21 35l-109 294h-504l-109 -294q-8 -24 -21 -35t-33 -11q-14 0 -40 8q-30 10 -43.5 23t-13.5 32zM412 474h399l-197 569h-4z " />
<glyph unicode="B" d="M205 68v1051q0 37 14.5 52.5t48.5 15.5h376q117 0 199 -41.5t123.5 -115.5t41.5 -172q0 -79 -35 -138.5t-99 -96.5q96 -36 148 -108.5t52 -178.5q0 -105 -45 -180.5t-131 -115.5t-208 -40h-422q-34 0 -48.5 15.5t-14.5 52.5zM355 144h315q119 0 184.5 48.5t65.5 143.5 q0 98 -64.5 146.5t-190.5 48.5h-310v-387zM355 675h267q115 0 173.5 47.5t58.5 135.5q0 185 -232 185h-267v-368z" />
<glyph unicode="C" d="M150 594q0 183 64 322.5t180.5 216t269.5 76.5q100 0 191 -24.5t182 -76.5q37 -22 37 -56q0 -19 -13 -48q-21 -44 -53 -44q-14 0 -34 11q-151 90 -310 90q-108 0 -189.5 -57t-126 -162.5t-44.5 -247.5t44.5 -248t126 -163t189.5 -57q159 0 310 90q20 11 34 11 q32 0 53 -44q13 -29 13 -48q0 -34 -37 -56q-91 -52 -182 -76.5t-191 -24.5q-153 0 -269.5 76.5t-180.5 216.5t-64 323z" />
<glyph unicode="D" d="M175 68v1051q0 37 14.5 52.5t48.5 15.5h336q157 0 276 -71.5t184.5 -206t65.5 -316.5t-65.5 -316t-184.5 -205.5t-276 -71.5h-336q-34 0 -48.5 15.5t-14.5 52.5zM325 144h230q120 0 207.5 50.5t135.5 151.5t48 247t-48 247t-135.5 152t-207.5 51h-230v-899z" />
<glyph unicode="E" d="M225 68v1051q0 37 14.5 52.5t48.5 15.5h669q34 0 48.5 -16.5t14.5 -55.5t-14.5 -55.5t-48.5 -16.5h-582v-359h457q34 0 48.5 -16.5t14.5 -55.5t-14.5 -55.5t-48.5 -16.5h-457v-396h602q34 0 48.5 -16.5t14.5 -55.5t-14.5 -55.5t-48.5 -16.5h-689q-34 0 -48.5 15.5 t-14.5 52.5z" />
<glyph unicode="F" d="M245 55v1064q0 37 15.5 52.5t47.5 15.5h669q34 0 48.5 -16.5t14.5 -55.5t-14.5 -55.5t-48.5 -16.5h-582v-399h467q34 0 48.5 -16.5t14.5 -55.5t-14.5 -55.5t-48.5 -16.5h-467v-445q0 -35 -16.5 -50t-57.5 -15h-2q-41 0 -57.5 15t-16.5 50z" />
<glyph unicode="G" d="M110 594q0 182 68.5 321.5t190 216.5t275.5 77q103 0 192.5 -21.5t178.5 -69.5q38 -21 38 -57q0 -19 -11 -46q-20 -45 -53 -45q-16 0 -34 10q-142 81 -311 81q-109 0 -195 -57t-135.5 -163t-49.5 -247q0 -142 46 -248t130 -163t194 -57q175 0 299 57v267h-267 q-34 0 -48.5 16.5t-14.5 55.5t14.5 55.5t48.5 16.5h354q34 0 48.5 -15.5t14.5 -52.5v-383q0 -49 -36 -69q-82 -47 -189 -71.5t-224 -24.5q-156 0 -275 76.5t-184 216.5t-65 323z" />
<glyph unicode="H" d="M175 55v1077q0 35 16.5 50t57.5 15h2q41 0 57.5 -15t16.5 -50v-448h578v448q0 35 16.5 50t57.5 15h2q41 0 57.5 -15t16.5 -50v-1077q0 -35 -16.5 -50t-57.5 -15h-2q-41 0 -57.5 15t-16.5 50v485h-578v-485q0 -35 -16.5 -50t-57.5 -15h-2q-41 0 -57.5 15t-16.5 50z" />
<glyph unicode="I" d="M200 72q0 39 14.5 55.5t48.5 16.5h276v899h-256q-34 0 -48.5 16.5t-14.5 55.5t14.5 55.5t48.5 16.5h662q34 0 48.5 -16.5t14.5 -55.5t-14.5 -55.5t-48.5 -16.5h-256v-899h276q34 0 48.5 -16.5t14.5 -55.5t-14.5 -55.5t-48.5 -16.5h-702q-34 0 -48.5 16.5t-14.5 55.5z" />
<glyph unicode="J" d="M184 144q0 23 18 53q26 39 56 39q17 0 36 -14q62 -47 136 -71.5t152 -24.5q222 0 222 237v680h-361q-34 0 -48.5 16.5t-14.5 55.5t14.5 55.5t48.5 16.5h448q32 0 47.5 -15.5t15.5 -52.5v-786q0 -171 -97.5 -263t-275.5 -92q-101 0 -196.5 29.5t-170.5 84.5q-30 23 -30 52 z" />
<glyph unicode="K" d="M215 55v1077q0 35 16.5 50t57.5 15h2q41 0 57.5 -15t16.5 -50v-548l571 607q16 17 40 17q28 0 60 -21q39 -25 39 -51q0 -20 -22 -42l-409 -433l434 -569q17 -23 17 -40q0 -28 -43 -52q-33 -19 -55 -19q-25 0 -44 25l-414 544l-174 -184v-311q0 -35 -16.5 -50t-57.5 -15 h-2q-41 0 -57.5 15t-16.5 50z" />
<glyph unicode="L" d="M245 68v1064q0 35 16.5 50t57.5 15h2q41 0 57.5 -15t16.5 -50v-988h582q34 0 48.5 -16.5t14.5 -55.5t-14.5 -55.5t-48.5 -16.5h-669q-35 0 -49 15.5t-14 52.5z" />
<glyph unicode="M" d="M145 55l30 1077q1 36 20 50.5t56 14.5h2q35 0 57.5 -15.5t38.5 -49.5l265 -570l265 570q16 34 39 49.5t58 15.5h2q37 0 55.5 -14.5t19.5 -50.5l30 -1077q1 -35 -15.5 -50t-57.5 -15h-2q-41 0 -57 15t-17 50l-21 813l-207 -446q-16 -35 -37 -49.5t-55 -14.5t-55 14.5 t-37 49.5l-207 446l-21 -813q-1 -35 -17 -50t-57 -15h-2q-41 0 -57.5 15t-15.5 50z" />
<glyph unicode="N" d="M175 55v1077q0 35 17 50t58 15h27q43 0 62 -28l564 -882h4v845q0 35 16 50t56 15h2q40 0 56 -15t16 -50v-1095q0 -27 -18.5 -43t-56.5 -16q-27 0 -46.5 14t-37.5 41l-569 888h-4v-866q0 -35 -16 -50t-56 -15h-2q-40 0 -56 15t-16 50z" />
<glyph unicode="O" d="M90 593q0 183 65 323t184 216.5t275 76.5t275 -76.5t184 -216.5t65 -323t-65 -322.5t-184 -216t-275 -76.5t-275 76.5t-184 216t-65 322.5zM244 593q0 -143 45.5 -248.5t129 -162t195.5 -56.5t195.5 56.5t129 162t45.5 248.5t-45.5 249t-129.5 162.5t-195 56.5 t-195 -56.5t-129.5 -162.5t-45.5 -249z" />
<glyph unicode="P" d="M235 55v1064q0 37 14.5 52.5t48.5 15.5h342q137 0 234.5 -50t147.5 -140t50 -209q0 -118 -50 -207.5t-147.5 -138.5t-234.5 -49h-255v-338q0 -35 -16.5 -50t-57.5 -15h-2q-41 0 -57.5 15t-16.5 50zM385 537h234q146 0 222.5 65.5t76.5 185.5q0 122 -76.5 188.5 t-222.5 66.5h-234v-506z" />
<glyph unicode="Q" d="M90 593q0 183 65 323t184 216.5t275 76.5t275 -76.5t184 -216.5t65 -323q0 -172 -57 -305t-162 -212l83 -130q15 -23 15 -40q0 -29 -43 -55q-29 -19 -50 -19q-27 0 -48 33l-90 140q-79 -27 -172 -27q-156 0 -275 76.5t-184 216t-65 322.5zM244 593q0 -143 45.5 -248.5 t129 -162t195.5 -56.5q48 0 88 10l-105 164q-15 25 -15 40q0 28 43 56q29 19 50 19q26 0 48 -34l114 -178q71 60 109 159.5t38 230.5q0 143 -45.5 249t-129.5 162.5t-195 56.5t-195 -56.5t-129.5 -162.5t-45.5 -249z" />
<glyph unicode="R" d="M235 55v1064q0 37 14.5 52.5t48.5 15.5h322q133 0 225.5 -44.5t139.5 -125t47 -189.5q0 -130 -66.5 -217.5t-194.5 -120.5l264 -402q14 -22 14 -38q0 -15 -11.5 -27t-35.5 -23q-35 -15 -52 -15q-27 0 -45 28l-298 460h-222v-418q0 -35 -16.5 -50t-57.5 -15h-2 q-41 0 -57.5 15t-16.5 50zM385 617h214q279 0 279 211q0 106 -69.5 160.5t-209.5 54.5h-214v-426z" />
<glyph unicode="S" d="M167 149q0 23 14 50q23 44 55 44q17 0 34 -11q75 -48 166.5 -77t185.5 -29q141 0 213.5 54.5t72.5 146.5q0 62 -31.5 101t-89.5 64q-39 17 -84 27.5t-123 24.5q-84 15 -140 28.5t-104 35.5q-78 35 -121 96t-43 159q0 107 51 185t143 119.5t212 41.5q235 0 410 -100 q36 -21 36 -56q0 -22 -13 -49q-20 -45 -55 -45q-15 0 -33 10q-154 92 -345 92q-119 0 -185.5 -53t-66.5 -145q0 -40 19.5 -68t57.5 -47q35 -18 80.5 -29t130.5 -26q82 -14 137 -26.5t105 -32.5q97 -39 151.5 -111t54.5 -196q0 -105 -49.5 -183.5t-148 -122t-242.5 -43.5 q-114 0 -223 30.5t-198 85.5q-34 21 -34 55z" />
<glyph unicode="T" d="M122 1115q0 39 14.5 55.5t48.5 16.5h858q34 0 48.5 -16.5t14.5 -55.5t-14.5 -55.5t-48.5 -16.5h-354v-988q0 -35 -16.5 -50t-57.5 -15h-2q-41 0 -57.5 15t-16.5 50v988h-354q-34 0 -48.5 16.5t-14.5 55.5z" />
<glyph unicode="U" d="M175 413v719q0 35 16.5 50t57.5 15h2q41 0 57.5 -15t16.5 -50v-699q0 -153 75 -230t214 -77t214 77t75 230v699q0 35 16.5 50t57.5 15h2q41 0 57.5 -15t16.5 -50v-719q0 -140 -55 -237.5t-154 -147.5t-230 -50t-230 50t-154 147.5t-55 237.5z" />
<glyph unicode="V" d="M99 1134q0 19 14 32t44 23q26 8 40 8q20 0 33 -11t21 -35l361 -969l361 969q8 24 21 35t33 11q14 0 40 -8q30 -10 44 -23t14 -32q0 -10 -7 -31l-399 -1060q-13 -35 -38.5 -50t-68.5 -15t-68.5 15t-38.5 50l-399 1060q-7 21 -7 31z" />
<glyph unicode="W" d="M67 1140q0 25 16 38t52 18q7 1 20 1q30 0 44 -13.5t18 -44.5l112 -881l207 587q7 20 24.5 30t49.5 10t49.5 -10t24.5 -30l207 -587l112 881q4 31 18 44.5t44 13.5q13 0 20 -1q36 -5 52 -18t16 -38q0 -12 -1 -18l-149 -1079q-5 -36 -25.5 -50.5t-60.5 -14.5q-77 0 -100 65 l-207 586l-207 -586q-23 -65 -100 -65q-40 0 -60.5 14.5t-25.5 50.5l-149 1079q-1 6 -1 18z" />
<glyph unicode="X" d="M149 50q0 18 15 39l362 516l-339 493q-15 21 -15 39q0 30 45 50q37 16 57 16q29 0 50 -31l297 -447l295 447q21 31 50 31q20 0 57 -16q45 -20 45 -50q0 -18 -15 -39l-340 -494l363 -515q15 -21 15 -38q0 -31 -45 -51q-37 -16 -57 -16q-30 0 -50 31l-321 472l-317 -472 q-11 -16 -23 -23.5t-27 -7.5q-20 0 -57 16q-45 20 -45 50z" />
<glyph unicode="Y" d="M125 1135q0 16 11.5 28.5t36.5 23.5q33 14 52 14q30 0 48 -29l341 -526l341 526q20 29 48 29q19 0 52 -14q25 -11 36.5 -23.5t11.5 -28.5t-15 -39l-399 -609v-432q0 -35 -16.5 -50t-57.5 -15h-2q-41 0 -57.5 15t-16.5 50v432l-399 609q-15 23 -15 39z" />
<glyph unicode="Z" d="M167 68q0 22 14 43l641 932h-566q-34 0 -48.5 16.5t-14.5 55.5t14.5 55.5t48.5 16.5h722q34 0 48.5 -15.5t14.5 -52.5q0 -25 -10 -39l-643 -936h608q34 0 48.5 -16.5t14.5 -55.5t-14.5 -55.5t-48.5 -16.5h-766q-34 0 -48.5 15.5t-14.5 52.5z" />
<glyph unicode="[" d="M330 -265v1569q0 37 14.5 52.5t48.5 15.5h414q34 0 48.5 -16.5t14.5 -55.5t-14.5 -55.5t-48.5 -16.5h-327v-1417h327q34 0 48.5 -16.5t14.5 -55.5t-14.5 -55.5t-48.5 -16.5h-414q-34 0 -48.5 15.5t-14.5 52.5z" />
<glyph unicode="\" d="M198 1341q0 23 26 38t66 15q23 0 40.5 -10t24.5 -26l672 -1643q3 -9 3 -17q0 -23 -26 -38t-66 -15q-23 0 -40.5 10t-24.5 26l-672 1643q-3 9 -3 17z" />
<glyph unicode="]" d="M358 -261q0 39 14.5 55.5t48.5 16.5h327v1417h-327q-34 0 -48.5 16.5t-14.5 55.5t14.5 55.5t48.5 16.5h414q34 0 48.5 -15.5t14.5 -52.5v-1569q0 -37 -14.5 -52.5t-48.5 -15.5h-414q-34 0 -48.5 16.5t-14.5 55.5z" />
<glyph unicode="^" d="M232 560q0 11 6 21l308 591q10 19 25 28t43 9t43 -9t25 -28l308 -591q5 -9 5 -21q0 -17 -13 -30t-33 -20q-22 -8 -44 -8q-19 0 -33 6.5t-21 18.5l-237 480l-237 -480q-7 -12 -21 -18.5t-33 -6.5q-17 0 -40 7q-22 7 -36.5 20.5t-14.5 30.5z" />
<glyph unicode="_" d="M-28 -321q0 43 5.5 57.5t17.5 14.5h1238q12 0 17.5 -14.5t5.5 -57.5t-5.5 -57.5t-17.5 -14.5h-1238q-12 0 -17.5 14.5t-5.5 57.5z" />
<glyph unicode="`" d="M313 1306q0 29 30 68q33 41 67 41q19 0 37 -13l348 -256q16 -12 16 -31q0 -25 -24 -52q-22 -25 -46 -25q-14 0 -32 10l-374 219q-22 13 -22 39z" />
<glyph unicode="a" d="M159 270q0 159 111.5 234t289.5 75q159 0 304 -51v85q0 97 -54.5 142.5t-175.5 45.5q-75 0 -156 -21t-154 -58q-16 -9 -31 -9q-32 0 -55 48q-11 24 -11 40q0 35 37 54q84 44 180.5 67.5t193.5 23.5q188 0 282 -84t94 -249v-558q0 -35 -15 -50t-54 -15h-2q-39 0 -54 15 t-15 50v68q-81 -69 -175.5 -107t-199.5 -38q-100 0 -177 34.5t-120 100.5t-43 157zM313 273q0 -73 50.5 -113.5t141.5 -40.5q199 0 359 165v109q-68 22 -146 33.5t-157 11.5q-115 0 -181.5 -39.5t-66.5 -125.5z" />
<glyph unicode="b" d="M192 55v1202q0 35 16.5 50t57.5 15h2q41 0 57.5 -15t16.5 -50v-476q129 165 317 165q124 0 221.5 -58.5t153 -168t55.5 -257.5t-55.5 -257.5t-153 -168t-221.5 -58.5q-98 0 -181 44t-146 126v-93q0 -35 -15 -50t-54 -15h-2q-39 0 -54 15t-15 50zM342 462 q0 -104 39.5 -180t109 -116t158.5 -40t153.5 42.5t98.5 119t34 174.5t-34 174.5t-98.5 119t-153.5 42.5t-158.5 -40t-109 -116t-39.5 -180z" />
<glyph unicode="c" d="M147 462q0 138 60 248t169.5 173t252.5 63q107 0 205.5 -28t182.5 -82q35 -22 35 -57q0 -23 -15 -50q-20 -41 -52 -41q-19 0 -37 13q-141 97 -319 97q-96 0 -169.5 -43t-114 -119.5t-40.5 -173.5t40.5 -173.5t114 -119.5t169.5 -43q92 0 178.5 28.5t157.5 82.5 q20 15 38 15q31 0 53 -38q17 -29 17 -52q0 -33 -32 -56q-82 -60 -190.5 -94t-221.5 -34q-143 0 -252.5 63t-169.5 173t-60 248z" />
<glyph unicode="d" d="M139 462q0 148 55.5 257.5t153 168t221.5 58.5q188 0 317 -165v476q0 35 16.5 50t57.5 15h2q41 0 57.5 -15t16.5 -50v-1202q0 -35 -15 -50t-54 -15h-2q-39 0 -54 15t-15 50v93q-63 -82 -146 -126t-181 -44q-124 0 -221.5 58.5t-153 168t-55.5 257.5zM293 462 q0 -98 34 -174.5t98.5 -119t153.5 -42.5t158.5 40t109 116t39.5 180t-39.5 180t-109 116t-158.5 40t-153.5 -42.5t-98.5 -119t-34 -174.5z" />
<glyph unicode="e" d="M148 462q0 143 60.5 253t168.5 170.5t246 60.5q145 0 247 -58.5t156.5 -161.5t62.5 -239v-7q1 -26 -13 -40q-16 -14 -50 -15h-724q7 -149 84 -225.5t217 -76.5q100 0 195.5 23t164.5 63q17 9 31 9q19 0 34.5 -14.5t24.5 -41.5q7 -18 7 -36q0 -40 -44 -61 q-81 -39 -191 -63t-222 -24q-145 0 -247 58t-155 167t-53 259zM312 565h615q-21 114 -97.5 175t-206.5 61q-124 0 -205 -62.5t-106 -173.5z" />
<glyph unicode="f" d="M187 772q0 39 14.5 55.5t48.5 16.5h198v123q0 165 92.5 257.5t259.5 92.5q134 0 266 -51q49 -19 49 -65q0 -8 -4 -28q-14 -56 -52 -56q-9 0 -22 5q-127 49 -237 49q-202 0 -202 -217v-110h346q34 0 48.5 -16.5t14.5 -55.5t-14.5 -55.5t-48.5 -16.5h-346v-645 q0 -35 -16.5 -50t-57.5 -15h-2q-41 0 -57.5 15t-16.5 50v645h-198q-34 0 -48.5 16.5t-14.5 55.5z" />
<glyph unicode="g" d="M139 487q0 140 55.5 244t153 159.5t221.5 55.5q98 0 181 -44t146 -126v93q0 35 15 50t54 15h2q39 0 54 -15t15 -50v-899q0 -119 -50.5 -204.5t-146.5 -130.5t-231 -45q-96 0 -194 16.5t-183 47.5q-39 14 -39 53q0 16 8 40q18 55 57 55q11 0 22 -4q78 -28 164 -44t165 -16 q138 0 208 65.5t70 179.5v201q-124 -156 -317 -156q-124 0 -221.5 55.5t-153 159.5t-55.5 244zM293 487q0 -91 34 -161.5t98.5 -110t153.5 -39.5t158.5 37t109 107.5t39.5 166.5t-39.5 166.5t-109 107.5t-158.5 37t-153.5 -39.5t-98.5 -110t-34 -161.5z" />
<glyph unicode="h" d="M202 55v1202q0 35 16.5 50t57.5 15h2q41 0 57.5 -15t16.5 -50v-537q69 102 171.5 164t203.5 62q151 0 234 -87t83 -239v-565q0 -35 -16.5 -50t-57.5 -15h-2q-41 0 -57.5 15t-16.5 50v550q0 90 -44.5 141.5t-137.5 51.5q-86 0 -169.5 -54.5t-137 -148t-53.5 -203.5v-337 q0 -35 -16.5 -50t-57.5 -15h-2q-41 0 -57.5 15t-16.5 50z" />
<glyph unicode="i" d="M187 72q0 39 14.5 55.5t48.5 16.5h313v636h-253q-34 0 -48.5 16.5t-14.5 55.5t14.5 55.5t48.5 16.5h340q34 0 48.5 -15.5t14.5 -52.5v-712h321q34 0 48.5 -16.5t14.5 -55.5t-14.5 -55.5t-48.5 -16.5h-784q-34 0 -48.5 16.5t-14.5 55.5zM523 1168v130q0 36 20 50.5 t75 14.5t75 -14.5t20 -50.5v-130q0 -36 -20 -50.5t-75 -14.5t-75 14.5t-20 50.5z" />
<glyph unicode="j" d="M190 -246q0 19 13 45q24 46 58 46q17 0 31 -10q69 -45 143 -72t141 -27q98 0 137.5 53t39.5 167v824h-423q-34 0 -48.5 16.5t-14.5 55.5t14.5 55.5t48.5 16.5h510q34 0 48.5 -15.5t14.5 -52.5v-913q0 -176 -78.5 -264.5t-248.5 -88.5q-83 0 -179 31.5t-174 80.5 q-33 20 -33 52zM713 1168v130q0 36 20 50.5t75 14.5t75 -14.5t20 -50.5v-130q0 -36 -20 -50.5t-75 -14.5t-75 14.5t-20 50.5z" />
<glyph unicode="k" d="M232 55v1202q0 35 16.5 50t57.5 15h2q41 0 57.5 -15t16.5 -50v-804l529 471q21 18 47 18t56 -18q42 -25 42 -53q0 -20 -21 -38l-360 -317l385 -421q20 -22 20 -40q0 -27 -42 -50q-36 -21 -60 -21q-22 0 -40 19l-376 414l-180 -158v-204q0 -35 -16.5 -50t-57.5 -15h-2 q-41 0 -57.5 15t-16.5 50z" />
<glyph unicode="l" d="M177 72q0 39 14.5 55.5t48.5 16.5h313v1024h-273q-34 0 -48.5 16.5t-14.5 55.5t14.5 55.5t48.5 16.5h360q34 0 48.5 -15.5t14.5 -52.5v-1100h321q34 0 48.5 -16.5t14.5 -55.5t-14.5 -55.5t-48.5 -16.5h-784q-34 0 -48.5 16.5t-14.5 55.5z" />
<glyph unicode="m" d="M121 55v814q0 35 13.5 50t50.5 15h2q37 0 50.5 -15t13.5 -50v-112q43 94 103 141.5t130 47.5q68 0 119 -46t69 -135q89 181 230 181q59 0 105.5 -29.5t74 -90t27.5 -148.5v-623q0 -35 -16.5 -50t-57.5 -15h-2q-41 0 -57.5 15t-16.5 50v605q0 69 -22.5 103.5t-72.5 34.5 q-47 0 -87 -43.5t-63.5 -121t-23.5 -176.5v-402q0 -35 -16.5 -50t-57.5 -15h-2q-41 0 -57.5 15t-16.5 50v605q0 69 -22.5 103.5t-72.5 34.5q-47 0 -87 -43.5t-63.5 -121t-23.5 -176.5v-402q0 -35 -16.5 -50t-57.5 -15h-2q-41 0 -57.5 15t-16.5 50z" />
<glyph unicode="n" d="M202 55v814q0 35 15 50t54 15h2q39 0 54 -15t15 -50v-163q68 105 173 172.5t212 67.5q151 0 234 -87t83 -239v-565q0 -35 -16.5 -50t-57.5 -15h-2q-41 0 -57.5 15t-16.5 50v550q0 90 -44.5 141.5t-137.5 51.5q-86 0 -169.5 -54.5t-137 -148t-53.5 -203.5v-337 q0 -35 -16.5 -50t-57.5 -15h-2q-41 0 -57.5 15t-16.5 50z" />
<glyph unicode="o" d="M134 462q0 139 62.5 249.5t172 172.5t245.5 62t245.5 -62t172 -172.5t62.5 -249.5t-62.5 -249.5t-172 -172.5t-245.5 -62t-245.5 62t-172 172.5t-62.5 249.5zM288 462q0 -98 40.5 -174.5t114.5 -119t171 -42.5t171 42.5t114.5 119t40.5 174.5t-40.5 174.5t-114.5 119 t-171 42.5t-171 -42.5t-114.5 -119t-40.5 -174.5z" />
<glyph unicode="p" d="M192 -333v1202q0 35 15 50t54 15h2q39 0 54 -15t15 -50v-93q63 82 146 126t181 44q124 0 221.5 -58.5t153 -168t55.5 -257.5t-55.5 -257.5t-153 -168t-221.5 -58.5q-188 0 -317 165v-476q0 -35 -16.5 -50t-57.5 -15h-2q-41 0 -57.5 15t-16.5 50zM342 462 q0 -104 39.5 -180t109 -116t158.5 -40t153.5 42.5t98.5 119t34 174.5t-34 174.5t-98.5 119t-153.5 42.5t-158.5 -40t-109 -116t-39.5 -180z" />
<glyph unicode="q" d="M139 462q0 148 55.5 257.5t153 168t221.5 58.5q98 0 181 -44t146 -126v93q0 35 15 50t54 15h2q39 0 54 -15t15 -50v-1202q0 -35 -16.5 -50t-57.5 -15h-2q-41 0 -57.5 15t-16.5 50v476q-129 -165 -317 -165q-124 0 -221.5 58.5t-153 168t-55.5 257.5zM293 462 q0 -98 34 -174.5t98.5 -119t153.5 -42.5t158.5 40t109 116t39.5 180t-39.5 180t-109 116t-158.5 40t-153.5 -42.5t-98.5 -119t-34 -174.5z" />
<glyph unicode="r" d="M307 55v814q0 35 15 50t54 15h2q39 0 54 -15t15 -50v-235q87 147 206 229.5t252 82.5q65 0 131 -21q49 -16 49 -64q0 -16 -4 -31q-9 -33 -21.5 -49.5t-31.5 -16.5q-11 0 -22 4q-56 18 -110 18q-115 0 -216 -70t-162 -188.5t-61 -257.5v-215q0 -35 -16.5 -50t-57.5 -15h-2 q-41 0 -57.5 15t-16.5 50z" />
<glyph unicode="s" d="M178 135q0 19 12 44q24 47 54 47q15 0 31 -9q82 -46 176 -70t193 -24q123 0 186.5 41.5t63.5 112.5q0 34 -20.5 55.5t-60.5 34.5q-34 11 -80 17.5t-118 13.5q-98 9 -160 19t-115 31q-71 28 -110.5 79t-39.5 133q0 92 48.5 156.5t133 97t192.5 32.5q229 0 402 -87 q40 -20 40 -57q0 -20 -10 -43q-23 -50 -54 -50q-10 0 -30 9q-163 83 -342 83q-106 0 -166 -36t-60 -105q0 -31 20 -50.5t57 -31.5q33 -11 74 -16.5t116 -12.5q93 -8 156 -17.5t117 -29.5q77 -29 120.5 -82.5t43.5 -142.5q0 -90 -45 -157.5t-133.5 -104.5t-215.5 -37 q-254 0 -437 100q-39 22 -39 57z" />
<glyph unicode="t" d="M117 772q0 39 14.5 55.5t48.5 16.5h203v300q0 35 17 50t58 15t58 -15t17 -50v-300h411q34 0 48.5 -16.5t14.5 -55.5t-14.5 -55.5t-48.5 -16.5h-411v-356q0 -114 40 -167t137 -53q67 0 141 27t143 72q14 10 31 10q34 0 58 -46q13 -26 13 -45q0 -32 -33 -52 q-78 -49 -174 -80.5t-179 -31.5q-170 0 -248.5 88.5t-78.5 264.5v369h-203q-34 0 -48.5 16.5t-14.5 55.5z" />
<glyph unicode="u" d="M184 304v565q0 35 16.5 50t57.5 15h2q41 0 57.5 -15t16.5 -50v-550q0 -90 44.5 -141.5t137.5 -51.5q86 0 169.5 54.5t137 148t53.5 203.5v337q0 35 16.5 50t57.5 15h2q41 0 57.5 -15t16.5 -50v-814q0 -35 -15 -50t-54 -15h-2q-39 0 -54 15t-15 50v163 q-68 -105 -173 -172.5t-212 -67.5q-151 0 -234 87t-83 239z" />
<glyph unicode="v" d="M124 868q0 18 13 31.5t40 24.5q27 12 46 12q17 0 29 -10t22 -32l340 -751l340 751q10 22 22 32t29 10q19 0 46 -12q27 -11 40 -24.5t13 -31.5q0 -15 -9 -35l-363 -793q-15 -33 -42 -47.5t-76 -14.5t-76 14.5t-42 47.5l-363 793q-9 19 -9 35z" />
<glyph unicode="w" d="M58 878q0 21 14 33.5t46 18.5q17 4 33 4q23 0 35.5 -12t18.5 -39l159 -673l175 533q16 47 75 47t75 -47l175 -533l159 673q6 27 18.5 39t35.5 12q16 0 33 -4q32 -6 46 -18.5t14 -33.5q0 -14 -4 -29l-199 -806q-9 -36 -26.5 -50.5t-55.5 -14.5q-43 0 -67 15.5t-35 49.5 l-169 512l-169 -512q-11 -34 -35 -49.5t-67 -15.5q-38 0 -55.5 14.5t-26.5 50.5l-199 806q-4 15 -4 29z" />
<glyph unicode="x" d="M167 50q0 19 17 39l328 382l-315 364q-18 21 -18 39q0 30 45 50q33 15 55 15q29 0 55 -30l286 -332l286 332q26 30 55 30q22 0 55 -15q45 -20 45 -50q0 -18 -18 -39l-315 -364l328 -382q17 -20 17 -39q0 -30 -44 -50q-33 -15 -55 -15q-29 0 -55 30l-299 352l-299 -352 q-26 -30 -55 -30q-22 0 -55 15q-44 20 -44 50z" />
<glyph unicode="y" d="M123 868q0 34 54 56q27 12 45 12q17 0 29 -10t23 -32l341 -683l339 683q11 22 23 32t29 10q18 0 45 -12q27 -11 40 -24.5t13 -31.5q0 -16 -10 -35l-597 -1191q-11 -22 -23 -32t-28 -10q-18 0 -45 12q-27 11 -39.5 24.5t-12.5 30.5q0 16 10 36l171 340l-397 790 q-10 19 -10 35z" />
<glyph unicode="z" d="M178 68q0 30 14 45l604 667h-535q-34 0 -48.5 16.5t-14.5 55.5t14.5 55.5t48.5 16.5h716q34 0 48.5 -15.5t14.5 -52.5q0 -29 -15 -46l-603 -666h565q34 0 48.5 -16.5t14.5 -55.5t-14.5 -55.5t-48.5 -16.5h-746q-34 0 -48.5 15.5t-14.5 52.5z" />
<glyph unicode="{" d="M177 541q0 39 14.5 55.5t48.5 16.5q139 0 205 63t66 179q0 20 -1 30l-5 74q-2 30 -2 43q0 185 110.5 277.5t313.5 92.5q34 0 48.5 -16.5t14.5 -55.5t-14.5 -55.5t-48.5 -16.5q-100 0 -160 -26t-86.5 -81t-26.5 -145l1 -29l3 -72q5 -120 -50.5 -198.5t-182.5 -130.5v-10 q126 -37 182.5 -108.5t56.5 -181.5q0 -22 -1 -33l-8 -121q-1 -13 -1 -38q0 -127 65.5 -185t207.5 -58q34 0 48.5 -16.5t14.5 -55.5t-14.5 -55.5t-48.5 -16.5q-201 0 -312.5 90t-111.5 270q0 35 2 53l11 123q2 28 2 40q0 113 -67 169.5t-211 56.5q-34 0 -48.5 16.5 t-14.5 55.5z" />
<glyph unicode="|" d="M539 -290v1619q0 35 17 50t58 15t58 -15t17 -50v-1619q0 -35 -17 -50t-58 -15t-58 15t-17 50z" />
<glyph unicode="}" d="M238 -261q0 39 14.5 55.5t48.5 16.5q142 0 207.5 58t65.5 185q0 25 -1 38l-8 121q-1 11 -1 33q0 110 56.5 181.5t182.5 108.5v10q-127 52 -182.5 130.5t-50.5 198.5l3 72q4 100 -20.5 161.5t-85 90.5t-166.5 29q-34 0 -48.5 16.5t-14.5 55.5t14.5 55.5t48.5 16.5 q203 0 313.5 -92.5t110.5 -277.5q0 -13 -2 -43l-5 -74q-1 -10 -1 -30q0 -116 66 -179t205 -63q34 0 48.5 -16.5t14.5 -55.5t-14.5 -55.5t-48.5 -16.5q-144 0 -211 -56.5t-67 -169.5q0 -12 2 -40l11 -123q2 -18 2 -53q0 -180 -111.5 -270t-312.5 -90q-34 0 -48.5 16.5 t-14.5 55.5z" />
<glyph unicode="~" d="M150 543q0 14 7 25q47 76 115 121.5t146 45.5q58 0 108.5 -21t114.5 -61q58 -34 94 -50t75 -16q85 0 155 84q16 19 38 19t43 -17q32 -24 32 -52q0 -14 -7 -25q-47 -76 -115 -121.5t-146 -45.5q-58 0 -108 21t-116 61q-56 33 -93 49.5t-75 16.5q-85 0 -155 -84 q-16 -19 -38 -19t-43 17q-32 24 -32 52z" />
<glyph unicode="&#xa0;" />
<glyph unicode="&#xa1;" d="M489 717v154q0 34 29.5 48.5t95.5 14.5t95.5 -14.5t29.5 -48.5v-154q0 -34 -29.5 -48.5t-95.5 -14.5t-95.5 14.5t-29.5 48.5zM508 -295l49 707q2 23 16.5 35.5t40.5 12.5t41.5 -12.5t16.5 -35.5l48 -707q2 -26 -8 -38t-33 -12h-130q-23 0 -33 12t-8 38z" />
<glyph unicode="&#xa2;" d="M147 602q0 129 52.5 234t149.5 170t225 77v164q0 34 16.5 49.5t53.5 15.5t53.5 -15.5t16.5 -49.5v-166q168 -17 303 -105q35 -22 35 -57q0 -23 -15 -50q-20 -41 -52 -41q-19 0 -37 13q-107 74 -234 91v-660q143 22 251 105q20 15 38 15q31 0 53 -38q17 -29 17 -52 q0 -33 -32 -56q-67 -48 -151.5 -80.5t-175.5 -42.5v-183q0 -34 -16.5 -49.5t-53.5 -15.5t-53.5 15.5t-16.5 49.5v181q-128 12 -225 77t-149.5 170t-52.5 234zM305 602q0 -87 33 -158.5t94 -116.5t142 -57v664q-81 -12 -142 -57t-94 -116.5t-33 -158.5z" />
<glyph unicode="&#xa3;" d="M220 576q0 39 14.5 55.5t48.5 16.5h82q-39 77 -57 126.5t-18 109.5q0 92 42 166t119 116.5t177 42.5q158 0 297 -87q34 -21 34 -51q0 -21 -16 -50q-24 -43 -53 -43q-15 0 -34 12q-107 71 -229 71q-55 0 -97 -23.5t-64 -64t-22 -89.5q0 -42 15 -81.5t45 -96.5l29 -58h282 q34 0 48.5 -16.5t14.5 -55.5t-14.5 -55.5t-48.5 -16.5h-238q4 -24 4 -58q0 -160 -125 -302h459q34 0 48.5 -16.5t14.5 -55.5t-14.5 -55.5t-48.5 -16.5h-607q-22 0 -38 30.5t-16 64.5q0 13 4.5 23t14.5 20q86 85 121 156t35 151q0 31 -6 59h-140q-34 0 -48.5 16.5t-14.5 55.5 z" />
<glyph unicode="&#xa4;" d="M111 180q0 21 23 44l142 142q-72 102 -72 236t72 236l-142 142q-23 23 -23 44q0 23 29 52t52 29q21 0 44 -23l143 -143q103 67 235 67t235 -67l143 143q23 23 44 23q23 0 52 -29t29 -52q0 -21 -23 -44l-142 -142q72 -102 72 -236t-72 -236l142 -142q23 -23 23 -44 q0 -23 -29 -52t-52 -29q-21 0 -44 23l-143 143q-103 -67 -235 -67t-235 67l-143 -143q-23 -23 -44 -23q-23 0 -52 29t-29 52zM352 602q0 -75 33 -135t92.5 -93.5t136.5 -33.5t136.5 33.5t92.5 93.5t33 135t-33 135t-92.5 93.5t-136.5 33.5t-136.5 -33.5t-92.5 -93.5 t-33 -135z" />
<glyph unicode="&#xa5;" d="M125 1135q0 16 11.5 28.5t36.5 23.5q33 14 52 14q30 0 48 -29l341 -526l341 526q20 29 48 29q19 0 52 -14q25 -11 36.5 -23.5t11.5 -28.5t-15 -39l-231 -352h158q34 0 48.5 -16.5t14.5 -55.5t-14.5 -55.5t-48.5 -16.5h-252l-74 -113v-53h306q34 0 48.5 -16.5t14.5 -55.5 t-14.5 -55.5t-48.5 -16.5h-306v-235q0 -35 -16.5 -50t-57.5 -15h-2q-41 0 -57.5 15t-16.5 50v235h-306q-34 0 -48.5 16.5t-14.5 55.5t14.5 55.5t48.5 16.5h306v53l-74 113h-252q-34 0 -48.5 16.5t-14.5 55.5t14.5 55.5t48.5 16.5h158l-231 352q-15 23 -15 39z" />
<glyph unicode="&#xa6;" d="M539 -290v599q0 35 17 50t58 15t58 -15t17 -50v-599q0 -35 -17 -50t-58 -15t-58 15t-17 50zM539 730v599q0 35 17 50t58 15t58 -15t17 -50v-599q0 -35 -17 -50t-58 -15t-58 15t-17 50z" />
<glyph unicode="&#xa7;" d="M193 624q0 66 30.5 116t90.5 95q-20 49 -20 112q0 71 31.5 125t93.5 84.5t150 30.5h326q34 0 48.5 -16.5t14.5 -55.5t-14.5 -55.5t-48.5 -16.5h-306q-70 0 -105.5 -25.5t-35.5 -74.5q0 -43 21.5 -73t69.5 -60l333 -206q84 -52 123.5 -117t39.5 -154q0 -66 -30.5 -116 t-90.5 -95q20 -49 20 -112q0 -71 -31.5 -125t-93.5 -84.5t-150 -30.5h-326q-34 0 -48.5 16.5t-14.5 55.5t14.5 55.5t48.5 16.5h306q70 0 105.5 25.5t35.5 74.5q0 43 -21.5 73t-69.5 60l-333 206q-84 52 -123.5 117t-39.5 154zM347 624q0 -45 24.5 -81t75.5 -68l333 -206 q18 -11 50 -35q25 19 38 43t13 56q0 45 -24.5 81t-75.5 68l-333 206q-18 11 -50 35q-25 -19 -38 -43t-13 -56z" />
<glyph unicode="&#xa8;" d="M309 1168v130q0 36 20 50.5t75 14.5t75 -14.5t20 -50.5v-130q0 -36 -20 -50.5t-75 -14.5t-75 14.5t-20 50.5zM729 1168v130q0 36 20 50.5t75 14.5t75 -14.5t20 -50.5v-130q0 -36 -20 -50.5t-75 -14.5t-75 14.5t-20 50.5z" />
<glyph unicode="&#xa9;" d="M36 594q0 170 74 311t205.5 222.5t298.5 81.5t298.5 -81.5t205.5 -222.5t74 -311t-74 -311t-206 -223t-298 -82t-298 82t-206 223t-74 311zM158 594q0 -142 57.5 -255t161.5 -177t237 -64t237 64t161.5 177t57.5 255t-57.5 254.5t-161.5 176.5t-237 64t-237 -64 t-161.5 -176.5t-57.5 -254.5zM315 593q0 106 40 183.5t111.5 119t162.5 41.5q45 0 91.5 -10.5t88.5 -29.5q21 -10 31 -22.5t10 -30.5q0 -16 -7 -33q-16 -40 -44 -40q-12 0 -30 8q-37 17 -69.5 24.5t-70.5 7.5q-79 0 -130 -56.5t-51 -161.5t51 -161.5t130 -56.5 q38 0 70.5 7.5t69.5 24.5q18 8 30 8q28 0 44 -40q7 -17 7 -33q0 -18 -10 -30.5t-31 -22.5q-42 -19 -88.5 -29.5t-91.5 -10.5q-91 0 -162.5 41.5t-111.5 119t-40 183.5z" />
<glyph unicode="&#xaa;" d="M252 687q0 122 85 181t221 59q132 0 234 -28v51q0 130 -148 130q-120 0 -232 -65q-14 -8 -26 -8q-28 0 -48 35q-16 28 -16 47q0 24 23 39q61 38 140.5 59.5t158.5 21.5q139 0 211 -66.5t72 -188.5v-430q0 -26 -14 -38t-45 -12h-2q-31 0 -45 12t-14 38v54 q-133 -113 -285 -113q-78 0 -139 25.5t-96 75.5t-35 121zM393 690q0 -48 35.5 -74t97.5 -26q147 0 266 117v69q-109 25 -223 25q-176 0 -176 -111z" />
<glyph unicode="&#xab;" d="M153 564q0 15 9 24l306 343q12 15 32 15q28 0 60 -28q31 -27 31 -51q0 -16 -14 -32l-246 -271l246 -271q14 -16 14 -32q0 -24 -31 -51q-32 -28 -60 -28q-20 0 -32 15l-306 343q-9 11 -9 24zM633 564q0 15 9 24l306 343q12 15 32 15q28 0 60 -28q31 -27 31 -51 q0 -16 -14 -32l-246 -271l246 -271q14 -16 14 -32q0 -24 -31 -51q-32 -28 -60 -28q-20 0 -32 15l-306 343q-9 11 -9 24z" />
<glyph unicode="&#xac;" d="M140 777q0 39 14.5 55.5t48.5 16.5h812q34 0 48.5 -15.5t14.5 -52.5v-398q0 -35 -17 -50t-58 -15t-58 15t-17 50v322h-725q-34 0 -48.5 16.5t-14.5 55.5z" />
<glyph unicode="&#xad;" horiz-adv-x="0" />
<glyph unicode="&#xae;" d="M132 822q0 142 61.5 259t171.5 185t249 68t249 -68t171.5 -185t61.5 -259t-61.5 -259.5t-171.5 -186t-249 -68.5t-249 68.5t-171.5 186t-61.5 259.5zM234 822q0 -119 48 -213t134.5 -147.5t197.5 -53.5t197.5 53.5t134.5 147.5t48 213q0 118 -48 212t-134.5 147 t-197.5 53t-197.5 -53t-134.5 -147t-48 -212zM423 606v432q0 28 13 40.5t41 12.5h156q61 0 107 -23.5t70.5 -65.5t24.5 -96q0 -62 -31.5 -105t-89.5 -63l89 -96q22 -24 22 -44q0 -18 -18 -35q-17 -16 -36 -16q-22 0 -39 20l-131 151h-74v-112q0 -29 -12 -41.5t-41 -12.5 q-28 0 -39.5 12.5t-11.5 41.5zM527 816h88q56 0 84 23.5t28 66.5q0 41 -26.5 64t-78.5 23h-95v-177z" />
<glyph unicode="&#xaf;" d="M290 1178q0 39 14.5 55.5t48.5 16.5h522q34 0 48.5 -16.5t14.5 -55.5t-14.5 -55.5t-48.5 -16.5h-522q-34 0 -48.5 16.5t-14.5 55.5z" />
<glyph unicode="&#xb0;" d="M246 929q0 76 37.5 140.5t102 102t140.5 37.5t140.5 -37.5t102 -102t37.5 -140.5t-37.5 -140.5t-102 -102t-140.5 -37.5t-140.5 37.5t-102 102t-37.5 140.5zM381 929q0 -39 19.5 -72.5t53 -53t72.5 -19.5t72.5 19.5t53 53t19.5 72.5t-19.5 72.5t-53 53t-72.5 19.5 t-72.5 -19.5t-53 -53t-19.5 -72.5z" />
<glyph unicode="&#xb1;" d="M170 182q0 39 14.5 55.5t48.5 16.5h762q34 0 48.5 -16.5t14.5 -55.5t-14.5 -55.5t-48.5 -16.5h-762q-34 0 -48.5 16.5t-14.5 55.5zM170 742q0 39 14.5 55.5t48.5 16.5h309v249q0 34 16.5 48.5t55.5 14.5t55.5 -14.5t16.5 -48.5v-249h309q34 0 48.5 -16.5t14.5 -55.5 t-14.5 -55.5t-48.5 -16.5h-309v-249q0 -34 -16.5 -48.5t-55.5 -14.5t-55.5 14.5t-16.5 48.5v249h-309q-34 0 -48.5 16.5t-14.5 55.5z" />
<glyph unicode="&#xb2;" d="M288 555q0 39 31 65l332 280q57 49 83.5 89t26.5 89q0 58 -40 92.5t-114 34.5q-51 0 -109.5 -17t-111.5 -44q-12 -5 -19 -5q-15 0 -27.5 12.5t-20.5 32.5q-9 25 -9 40q0 28 22 40q61 33 136.5 51.5t147.5 18.5q88 0 152.5 -31.5t98.5 -89.5t34 -135t-39.5 -139.5 t-123.5 -132.5l-239 -198h387q25 0 37 -14.5t12 -47.5t-12 -48t-37 -15h-551q-47 0 -47 72z" />
<glyph unicode="&#xb3;" d="M302 569q0 17 8 39q9 22 21.5 34.5t27.5 12.5q9 0 19 -5q51 -26 108.5 -41t111.5 -15q90 0 139 32.5t49 93.5q0 66 -47.5 93t-136.5 27h-52q-44 0 -44 62q0 28 10.5 45.5t33.5 17.5h39q84 0 127 29t43 92q0 58 -44 88.5t-122 30.5q-98 0 -206 -55q-10 -5 -19 -5 q-30 0 -49 47q-8 21 -8 37q0 30 22 41q58 31 128.5 47.5t142.5 16.5q90 0 157 -30t102.5 -84t35.5 -124q0 -121 -112 -181q66 -22 102.5 -72t36.5 -124q0 -119 -81.5 -186.5t-239.5 -67.5q-74 0 -148 16.5t-133 48.5q-22 12 -22 39z" />
<glyph unicode="&#xb4;" d="M417 1115q0 19 16 31l348 256q18 13 37 13q34 0 67 -41q30 -39 30 -68q0 -26 -22 -39l-374 -219q-18 -10 -32 -10q-24 0 -46 25q-24 27 -24 52z" />
<glyph unicode="&#xb6;" d="M131 844q0 106 52.5 183.5t147 118.5t217.5 41h506q34 0 48.5 -16.5t14.5 -55.5t-14.5 -55.5t-48.5 -16.5h-68v-1388q0 -35 -17 -50t-58 -15t-58 15t-17 50v1388h-160v-1388q0 -35 -17 -50t-58 -15t-58 15t-17 50v847q-117 4 -206.5 45.5t-139 117.5t-49.5 179z" />
<glyph unicode="&#xb7;" d="M479 488v184q0 34 31.5 48.5t103.5 14.5t103.5 -14.5t31.5 -48.5v-184q0 -34 -31.5 -48.5t-103.5 -14.5t-103.5 14.5t-31.5 48.5z" />
<glyph unicode="&#xb8;" d="M351 -389q0 14 8 35q17 45 46 45q8 0 13 -2q43 -16 94.5 -27t98.5 -11q51 0 80 16.5t29 47.5q0 33 -27 49t-89 16l-39 -1q-15 0 -24.5 10.5t-9.5 33.5v205h132v-141q101 1 152 -46t51 -122q0 -87 -62 -139t-183 -52q-68 0 -132 12t-115 36q-23 10 -23 35z" />
<glyph unicode="&#xb9;" d="M308 1139q0 24 27 37l301 152q16 7 26 7q18 0 30 -11.5t12 -31.5v-684h194q25 0 37 -14.5t12 -47.5t-12 -48t-37 -15h-533q-50 0 -50 63q0 33 12.5 47.5t37.5 14.5h204v551l-169 -88q-18 -9 -31 -9q-25 0 -46 34q-15 27 -15 43z" />
<glyph unicode="&#xba;" d="M235 837q0 106 49.5 191t136 133t193.5 48t193.5 -48t136 -133t49.5 -191q0 -107 -49.5 -191.5t-136 -132.5t-193.5 -48t-193.5 48t-136 132.5t-49.5 191.5zM375 837q0 -69 30 -124t84.5 -85.5t124.5 -30.5q71 0 125 30.5t84 85t30 124.5q0 69 -30 123.5t-84 85.5 t-125 31q-70 0 -124.5 -31t-84.5 -85.5t-30 -123.5z" />
<glyph unicode="&#xbb;" d="M157 261q0 16 14 32l246 271l-246 271q-14 16 -14 32q0 24 31 51q32 28 60 28q20 0 32 -15l306 -343q9 -9 9 -24q0 -13 -9 -24l-306 -343q-12 -15 -32 -15q-28 0 -60 28q-31 27 -31 51zM637 261q0 16 14 32l246 271l-246 271q-14 16 -14 32q0 24 31 51q32 28 60 28 q20 0 32 -15l306 -343q9 -9 9 -24q0 -13 -9 -24l-306 -343q-12 -15 -32 -15q-28 0 -60 28q-31 27 -31 51z" />
<glyph unicode="&#xbc;" d="M-5 1231q0 20 23 31l251 127q12 5 22 5q15 0 25 -9t10 -26v-571h162q21 0 31 -12t10 -40q0 -27 -10 -39.5t-31 -12.5h-445q-42 0 -42 52q0 28 10.5 40t31.5 12h170v459l-141 -73q-14 -7 -26 -7q-23 0 -38 28q-13 21 -13 36zM111 252q0 18 14 27l918 561q7 4 16 4 q23 0 44 -28q14 -18 14 -38q0 -19 -14 -27l-918 -561q-7 -4 -16 -4q-23 0 -44 28q-14 20 -14 38zM630 36q0 15 3 24.5t11 20.5l317 377q15 19 30.5 28t36.5 9q29 0 51.5 -13.5t22.5 -33.5v-372h91q20 0 30 -12t10 -40t-10 -40.5t-30 -12.5h-91v-153q0 -20 -13 -30t-43 -10 t-43.5 10t-13.5 30v153h-314q-20 0 -32.5 16.5t-12.5 48.5zM773 76h216l5 266z" />
<glyph unicode="&#xbd;" d="M-5 1231q0 20 23 31l251 127q12 5 22 5q15 0 25 -9t10 -26v-571h162q21 0 31 -12t10 -40q0 -27 -10 -39.5t-31 -12.5h-445q-42 0 -42 52q0 28 10.5 40t31.5 12h170v459l-141 -73q-14 -7 -26 -7q-23 0 -38 28q-13 21 -13 36zM111 302q0 18 14 27l918 561q7 4 16 4 q23 0 44 -28q14 -18 14 -38q0 -19 -14 -27l-918 -561q-7 -4 -16 -4q-23 0 -44 28q-14 20 -14 38zM669 -156q0 33 26 54l278 234q47 40 69 73.5t22 74.5q0 48 -33 77t-95 29q-43 0 -92 -14t-93 -37q-7 -4 -15 -4q-25 0 -41 37q-7 19 -7 33q0 24 18 34q52 28 115 43.5 t122 15.5q111 0 174.5 -58t63.5 -156q0 -64 -33 -116.5t-103 -110.5l-199 -165h323q21 0 31 -12t10 -40q0 -27 -10 -39.5t-31 -12.5h-460q-40 0 -40 60z" />
<glyph unicode="&#xbe;" d="M21 756q0 13 7 32q15 39 41 39q8 0 16 -4q43 -21 90.5 -34t92.5 -13q75 0 116 27.5t41 77.5q0 55 -39.5 78t-113.5 23h-44q-36 0 -36 51q0 24 9 38.5t27 14.5h33q70 0 106 24t36 77q0 49 -37 74t-102 25q-83 0 -172 -46q-7 -4 -16 -4q-25 0 -41 39q-6 17 -6 32 q0 23 18 33q48 26 107.5 40t118.5 14q76 0 131.5 -25t85.5 -70.5t30 -103.5q0 -100 -94 -151q55 -18 85.5 -59.5t30.5 -103.5q0 -99 -68 -155.5t-200 -56.5q-62 0 -123.5 13.5t-110.5 40.5q-19 10 -19 33zM111 262q0 18 14 27l918 561q7 4 16 4q23 0 44 -28q14 -18 14 -38 q0 -19 -14 -27l-918 -561q-7 -4 -16 -4q-23 0 -44 28q-14 20 -14 38zM630 36q0 15 3 24.5t11 20.5l317 377q15 19 30.5 28t36.5 9q29 0 51.5 -13.5t22.5 -33.5v-372h91q20 0 30 -12t10 -40t-10 -40.5t-30 -12.5h-91v-153q0 -20 -13 -30t-43 -10t-43.5 10t-13.5 30v153h-314 q-20 0 -32.5 16.5t-12.5 48.5zM773 76h216l5 266z" />
<glyph unicode="&#xbf;" d="M262 -32q0 86 34.5 147.5t102 107t176.5 90.5l13 144q5 48 66 48q63 0 66 -48l13 -198q2 -20 -5.5 -32t-24.5 -19l-69 -28q-80 -33 -126.5 -62t-69 -65t-22.5 -85q0 -75 50.5 -120t142.5 -45q133 0 261 67q15 9 31 9q33 0 53 -46q12 -27 12 -46q0 -33 -38 -54 q-144 -78 -318 -78q-108 0 -186.5 39.5t-120 110t-41.5 163.5zM539 757v114q0 34 27 48.5t88 14.5t88 -14.5t27 -48.5v-114q0 -34 -27 -48.5t-88 -14.5t-88 14.5t-27 48.5z" />
<glyph unicode="&#xc0;" d="M100 53q0 13 6 31l394 1060q13 35 39 50t73 15t73 -15t39 -50l394 -1060q6 -18 6 -31q0 -19 -13.5 -32t-43.5 -23q-26 -8 -40 -8q-20 0 -33 11t-21 35l-109 294h-504l-109 -294q-8 -24 -21 -35t-33 -11q-14 0 -40 8q-30 10 -43.5 23t-13.5 32zM285 1576q0 29 30 68 q33 41 67 41q19 0 37 -13l348 -256q16 -12 16 -31q0 -25 -24 -52q-22 -25 -46 -25q-14 0 -32 10l-374 219q-22 13 -22 39zM412 474h399l-197 569h-4z" />
<glyph unicode="&#xc1;" d="M100 53q0 13 6 31l394 1060q13 35 39 50t73 15t73 -15t39 -50l394 -1060q6 -18 6 -31q0 -19 -13.5 -32t-43.5 -23q-26 -8 -40 -8q-20 0 -33 11t-21 35l-109 294h-504l-109 -294q-8 -24 -21 -35t-33 -11q-14 0 -40 8q-30 10 -43.5 23t-13.5 32zM412 474h399l-197 569h-4z M445 1385q0 19 16 31l348 256q18 13 37 13q34 0 67 -41q30 -39 30 -68q0 -26 -22 -39l-374 -219q-18 -10 -32 -10q-24 0 -46 25q-24 27 -24 52z" />
<glyph unicode="&#xc2;" d="M100 53q0 13 6 31l394 1060q13 35 39 50t73 15t73 -15t39 -50l394 -1060q6 -18 6 -31q0 -19 -13.5 -32t-43.5 -23q-26 -8 -40 -8q-20 0 -33 11t-21 35l-109 294h-504l-109 -294q-8 -24 -21 -35t-33 -11q-14 0 -40 8q-30 10 -43.5 23t-13.5 32zM295 1380q0 18 16 33 l245 233q22 20 58 20t58 -20l245 -233q16 -15 16 -33q0 -21 -23 -47q-21 -24 -44 -24q-16 0 -31 12l-221 173l-221 -173q-15 -12 -31 -12q-23 0 -44 24q-23 26 -23 47zM412 474h399l-197 569h-4z" />
<glyph unicode="&#xc3;" d="M100 53q0 13 6 31l394 1060q13 35 39 50t73 15t73 -15t39 -50l394 -1060q6 -18 6 -31q0 -19 -13.5 -32t-43.5 -23q-26 -8 -40 -8q-20 0 -33 11t-21 35l-109 294h-504l-109 -294q-8 -24 -21 -35t-33 -11q-14 0 -40 8q-30 10 -43.5 23t-13.5 32zM270 1426q0 19 14 36 q48 62 102.5 92.5t107.5 30.5q35 0 63.5 -9.5t68.5 -27.5q35 -17 59 -25t50 -8q32 0 62.5 17t63.5 51q12 12 29 12q25 0 47 -25q21 -22 21 -45q0 -19 -14 -36q-48 -62 -102.5 -92.5t-107.5 -30.5q-35 0 -63.5 9.5t-68.5 27.5q-35 17 -59 25t-50 8q-32 0 -62.5 -17t-63.5 -51 q-12 -12 -29 -12q-25 0 -47 25q-21 22 -21 45zM412 474h399l-197 569h-4z" />
<glyph unicode="&#xc4;" d="M100 53q0 13 6 31l394 1060q13 35 39 50t73 15t73 -15t39 -50l394 -1060q6 -18 6 -31q0 -19 -13.5 -32t-43.5 -23q-26 -8 -40 -8q-20 0 -33 11t-21 35l-109 294h-504l-109 -294q-8 -24 -21 -35t-33 -11q-14 0 -40 8q-30 10 -43.5 23t-13.5 32zM307 1438v130q0 36 20 50.5 t75 14.5t75 -14.5t20 -50.5v-130q0 -36 -20 -50.5t-75 -14.5t-75 14.5t-20 50.5zM412 474h399l-197 569h-4zM727 1438v130q0 36 20 50.5t75 14.5t75 -14.5t20 -50.5v-130q0 -36 -20 -50.5t-75 -14.5t-75 14.5t-20 50.5z" />
<glyph unicode="&#xc5;" d="M100 53q0 13 6 31l394 1060q13 35 39 50t73 15t73 -15t39 -50l394 -1060q6 -18 6 -31q0 -19 -13.5 -32t-43.5 -23q-26 -8 -40 -8q-20 0 -33 11t-21 35l-109 294h-504l-109 -294q-8 -24 -21 -35t-33 -11q-14 0 -40 8q-30 10 -43.5 23t-13.5 32zM368 1551q0 69 32 125.5 t88.5 88.5t125.5 32t125.5 -32t88.5 -88.5t32 -125.5t-32 -125.5t-88.5 -88.5t-125.5 -32t-125.5 32t-88.5 88.5t-32 125.5zM412 474h399l-197 569h-4zM500 1551q0 -52 31 -83t83 -31t83 31t31 83t-31 83t-83 31t-83 -31t-31 -83z" />
<glyph unicode="&#xc6;" d="M20 52q0 15 7 32l403 1035q14 37 34.5 52.5t54.5 15.5h568q34 0 48.5 -16.5t14.5 -55.5t-14.5 -55.5t-48.5 -16.5h-362v-359h317q34 0 48.5 -16.5t14.5 -55.5t-14.5 -55.5t-48.5 -16.5h-317v-396h382q34 0 48.5 -16.5t14.5 -55.5t-14.5 -55.5t-48.5 -16.5h-469 q-34 0 -48.5 15.5t-14.5 52.5v302h-274l-130 -334q-9 -24 -22 -35t-33 -11q-14 0 -40 8q-29 9 -42.5 22t-13.5 32zM355 514h220v529h-25z" />
<glyph unicode="&#xc7;" d="M150 594q0 183 64 322.5t180.5 216t269.5 76.5q100 0 191 -24.5t182 -76.5q37 -22 37 -56q0 -19 -13 -48q-21 -44 -53 -44q-14 0 -34 11q-151 90 -310 90q-108 0 -189.5 -57t-126 -162.5t-44.5 -247.5t44.5 -248t126 -163t189.5 -57q159 0 310 90q20 11 34 11 q32 0 53 -44q13 -29 13 -48q0 -34 -37 -56q-150 -86 -309 -98v-94q101 1 152 -46t51 -122q0 -87 -62 -139t-183 -52q-68 0 -132 12t-115 36q-23 10 -23 35q0 14 8 35q17 45 46 45q8 0 13 -2q43 -16 94.5 -27t98.5 -11q51 0 80 16.5t29 47.5q0 33 -27 49t-89 16l-39 -1 q-15 0 -24.5 10.5t-9.5 33.5v159q-135 17 -235.5 97.5t-155.5 213t-55 301.5z" />
<glyph unicode="&#xc8;" d="M225 68v1051q0 37 14.5 52.5t48.5 15.5h669q34 0 48.5 -16.5t14.5 -55.5t-14.5 -55.5t-48.5 -16.5h-582v-359h457q34 0 48.5 -16.5t14.5 -55.5t-14.5 -55.5t-48.5 -16.5h-457v-396h602q34 0 48.5 -16.5t14.5 -55.5t-14.5 -55.5t-48.5 -16.5h-689q-34 0 -48.5 15.5 t-14.5 52.5zM345 1576q0 29 30 68q33 41 67 41q19 0 37 -13l348 -256q16 -12 16 -31q0 -25 -24 -52q-22 -25 -46 -25q-14 0 -32 10l-374 219q-22 13 -22 39z" />
<glyph unicode="&#xc9;" d="M225 68v1051q0 37 14.5 52.5t48.5 15.5h669q34 0 48.5 -16.5t14.5 -55.5t-14.5 -55.5t-48.5 -16.5h-582v-359h457q34 0 48.5 -16.5t14.5 -55.5t-14.5 -55.5t-48.5 -16.5h-457v-396h602q34 0 48.5 -16.5t14.5 -55.5t-14.5 -55.5t-48.5 -16.5h-689q-34 0 -48.5 15.5 t-14.5 52.5zM385 1385q0 19 16 31l348 256q18 13 37 13q34 0 67 -41q30 -39 30 -68q0 -26 -22 -39l-374 -219q-18 -10 -32 -10q-24 0 -46 25q-24 27 -24 52z" />
<glyph unicode="&#xca;" d="M225 68v1051q0 37 14.5 52.5t48.5 15.5h669q34 0 48.5 -16.5t14.5 -55.5t-14.5 -55.5t-48.5 -16.5h-582v-359h457q34 0 48.5 -16.5t14.5 -55.5t-14.5 -55.5t-48.5 -16.5h-457v-396h602q34 0 48.5 -16.5t14.5 -55.5t-14.5 -55.5t-48.5 -16.5h-689q-34 0 -48.5 15.5 t-14.5 52.5zM325 1380q0 18 16 33l245 233q22 20 58 20t58 -20l245 -233q16 -15 16 -33q0 -21 -23 -47q-21 -24 -44 -24q-16 0 -31 12l-221 173l-221 -173q-15 -12 -31 -12q-23 0 -44 24q-23 26 -23 47z" />
<glyph unicode="&#xcb;" d="M225 68v1051q0 37 14.5 52.5t48.5 15.5h669q34 0 48.5 -16.5t14.5 -55.5t-14.5 -55.5t-48.5 -16.5h-582v-359h457q34 0 48.5 -16.5t14.5 -55.5t-14.5 -55.5t-48.5 -16.5h-457v-396h602q34 0 48.5 -16.5t14.5 -55.5t-14.5 -55.5t-48.5 -16.5h-689q-34 0 -48.5 15.5 t-14.5 52.5zM329 1438v130q0 36 20 50.5t75 14.5t75 -14.5t20 -50.5v-130q0 -36 -20 -50.5t-75 -14.5t-75 14.5t-20 50.5zM749 1438v130q0 36 20 50.5t75 14.5t75 -14.5t20 -50.5v-130q0 -36 -20 -50.5t-75 -14.5t-75 14.5t-20 50.5z" />
<glyph unicode="&#xcc;" d="M200 72q0 39 14.5 55.5t48.5 16.5h276v899h-256q-34 0 -48.5 16.5t-14.5 55.5t14.5 55.5t48.5 16.5h662q34 0 48.5 -16.5t14.5 -55.5t-14.5 -55.5t-48.5 -16.5h-256v-899h276q34 0 48.5 -16.5t14.5 -55.5t-14.5 -55.5t-48.5 -16.5h-702q-34 0 -48.5 16.5t-14.5 55.5z M313 1576q0 29 30 68q33 41 67 41q19 0 37 -13l348 -256q16 -12 16 -31q0 -25 -24 -52q-22 -25 -46 -25q-14 0 -32 10l-374 219q-22 13 -22 39z" />
<glyph unicode="&#xcd;" d="M200 72q0 39 14.5 55.5t48.5 16.5h276v899h-256q-34 0 -48.5 16.5t-14.5 55.5t14.5 55.5t48.5 16.5h662q34 0 48.5 -16.5t14.5 -55.5t-14.5 -55.5t-48.5 -16.5h-256v-899h276q34 0 48.5 -16.5t14.5 -55.5t-14.5 -55.5t-48.5 -16.5h-702q-34 0 -48.5 16.5t-14.5 55.5z M417 1385q0 19 16 31l348 256q18 13 37 13q34 0 67 -41q30 -39 30 -68q0 -26 -22 -39l-374 -219q-18 -10 -32 -10q-24 0 -46 25q-24 27 -24 52z" />
<glyph unicode="&#xce;" d="M200 72q0 39 14.5 55.5t48.5 16.5h276v899h-256q-34 0 -48.5 16.5t-14.5 55.5t14.5 55.5t48.5 16.5h662q34 0 48.5 -16.5t14.5 -55.5t-14.5 -55.5t-48.5 -16.5h-256v-899h276q34 0 48.5 -16.5t14.5 -55.5t-14.5 -55.5t-48.5 -16.5h-702q-34 0 -48.5 16.5t-14.5 55.5z M295 1380q0 18 16 33l245 233q22 20 58 20t58 -20l245 -233q16 -15 16 -33q0 -21 -23 -47q-21 -24 -44 -24q-16 0 -31 12l-221 173l-221 -173q-15 -12 -31 -12q-23 0 -44 24q-23 26 -23 47z" />
<glyph unicode="&#xcf;" d="M200 72q0 39 14.5 55.5t48.5 16.5h276v899h-256q-34 0 -48.5 16.5t-14.5 55.5t14.5 55.5t48.5 16.5h662q34 0 48.5 -16.5t14.5 -55.5t-14.5 -55.5t-48.5 -16.5h-256v-899h276q34 0 48.5 -16.5t14.5 -55.5t-14.5 -55.5t-48.5 -16.5h-702q-34 0 -48.5 16.5t-14.5 55.5z M309 1438v130q0 36 20 50.5t75 14.5t75 -14.5t20 -50.5v-130q0 -36 -20 -50.5t-75 -14.5t-75 14.5t-20 50.5zM729 1438v130q0 36 20 50.5t75 14.5t75 -14.5t20 -50.5v-130q0 -36 -20 -50.5t-75 -14.5t-75 14.5t-20 50.5z" />
<glyph unicode="&#xd0;" d="M50 612q0 39 14.5 55.5t48.5 16.5h112v435q0 37 14.5 52.5t48.5 15.5h306q157 0 276 -71.5t184.5 -206t65.5 -316.5t-65.5 -316t-184.5 -205.5t-276 -71.5h-306q-34 0 -48.5 15.5t-14.5 52.5v472h-112q-34 0 -48.5 16.5t-14.5 55.5zM375 144h200q120 0 207.5 50.5 t135.5 151.5t48 247t-48 247t-135.5 152t-207.5 51h-200v-359h220q34 0 48.5 -16.5t14.5 -55.5t-14.5 -55.5t-48.5 -16.5h-220v-396z" />
<glyph unicode="&#xd1;" d="M175 55v1077q0 35 17 50t58 15h27q43 0 62 -28l564 -882h4v845q0 35 16 50t56 15h2q40 0 56 -15t16 -50v-1095q0 -27 -18.5 -43t-56.5 -16q-27 0 -46.5 14t-37.5 41l-569 888h-4v-866q0 -35 -16 -50t-56 -15h-2q-40 0 -56 15t-16 50zM270 1426q0 19 14 36 q48 62 102.5 92.5t107.5 30.5q35 0 63.5 -9.5t68.5 -27.5q35 -17 59 -25t50 -8q32 0 62.5 17t63.5 51q12 12 29 12q25 0 47 -25q21 -22 21 -45q0 -19 -14 -36q-48 -62 -102.5 -92.5t-107.5 -30.5q-35 0 -63.5 9.5t-68.5 27.5q-35 17 -59 25t-50 8q-32 0 -62.5 -17t-63.5 -51 q-12 -12 -29 -12q-25 0 -47 25q-21 22 -21 45z" />
<glyph unicode="&#xd2;" d="M90 593q0 183 65 323t184 216.5t275 76.5t275 -76.5t184 -216.5t65 -323t-65 -322.5t-184 -216t-275 -76.5t-275 76.5t-184 216t-65 322.5zM244 593q0 -143 45.5 -248.5t129 -162t195.5 -56.5t195.5 56.5t129 162t45.5 248.5t-45.5 249t-129.5 162.5t-195 56.5 t-195 -56.5t-129.5 -162.5t-45.5 -249zM335 1576q0 29 30 68q33 41 67 41q19 0 37 -13l348 -256q16 -12 16 -31q0 -25 -24 -52q-22 -25 -46 -25q-14 0 -32 10l-374 219q-22 13 -22 39z" />
<glyph unicode="&#xd3;" d="M90 593q0 183 65 323t184 216.5t275 76.5t275 -76.5t184 -216.5t65 -323t-65 -322.5t-184 -216t-275 -76.5t-275 76.5t-184 216t-65 322.5zM244 593q0 -143 45.5 -248.5t129 -162t195.5 -56.5t195.5 56.5t129 162t45.5 248.5t-45.5 249t-129.5 162.5t-195 56.5 t-195 -56.5t-129.5 -162.5t-45.5 -249zM395 1385q0 19 16 31l348 256q18 13 37 13q34 0 67 -41q30 -39 30 -68q0 -26 -22 -39l-374 -219q-18 -10 -32 -10q-24 0 -46 25q-24 27 -24 52z" />
<glyph unicode="&#xd4;" d="M90 593q0 183 65 323t184 216.5t275 76.5t275 -76.5t184 -216.5t65 -323t-65 -322.5t-184 -216t-275 -76.5t-275 76.5t-184 216t-65 322.5zM244 593q0 -143 45.5 -248.5t129 -162t195.5 -56.5t195.5 56.5t129 162t45.5 248.5t-45.5 249t-129.5 162.5t-195 56.5 t-195 -56.5t-129.5 -162.5t-45.5 -249zM295 1380q0 18 16 33l245 233q22 20 58 20t58 -20l245 -233q16 -15 16 -33q0 -21 -23 -47q-21 -24 -44 -24q-16 0 -31 12l-221 173l-221 -173q-15 -12 -31 -12q-23 0 -44 24q-23 26 -23 47z" />
<glyph unicode="&#xd5;" d="M90 593q0 183 65 323t184 216.5t275 76.5t275 -76.5t184 -216.5t65 -323t-65 -322.5t-184 -216t-275 -76.5t-275 76.5t-184 216t-65 322.5zM244 593q0 -143 45.5 -248.5t129 -162t195.5 -56.5t195.5 56.5t129 162t45.5 248.5t-45.5 249t-129.5 162.5t-195 56.5 t-195 -56.5t-129.5 -162.5t-45.5 -249zM270 1426q0 19 14 36q48 62 102.5 92.5t107.5 30.5q35 0 63.5 -9.5t68.5 -27.5q35 -17 59 -25t50 -8q32 0 62.5 17t63.5 51q12 12 29 12q25 0 47 -25q21 -22 21 -45q0 -19 -14 -36q-48 -62 -102.5 -92.5t-107.5 -30.5q-35 0 -63.5 9.5 t-68.5 27.5q-35 17 -59 25t-50 8q-32 0 -62.5 -17t-63.5 -51q-12 -12 -29 -12q-25 0 -47 25q-21 22 -21 45z" />
<glyph unicode="&#xd6;" d="M90 593q0 183 65 323t184 216.5t275 76.5t275 -76.5t184 -216.5t65 -323t-65 -322.5t-184 -216t-275 -76.5t-275 76.5t-184 216t-65 322.5zM244 593q0 -143 45.5 -248.5t129 -162t195.5 -56.5t195.5 56.5t129 162t45.5 248.5t-45.5 249t-129.5 162.5t-195 56.5 t-195 -56.5t-129.5 -162.5t-45.5 -249zM309 1438v130q0 36 20 50.5t75 14.5t75 -14.5t20 -50.5v-130q0 -36 -20 -50.5t-75 -14.5t-75 14.5t-20 50.5zM729 1438v130q0 36 20 50.5t75 14.5t75 -14.5t20 -50.5v-130q0 -36 -20 -50.5t-75 -14.5t-75 14.5t-20 50.5z" />
<glyph unicode="&#xd7;" d="M231 280q0 21 23 44l258 258l-258 258q-23 23 -23 44q0 23 29 52t52 29q21 0 44 -23l258 -258l258 258q23 23 44 23q23 0 52 -29t29 -52q0 -21 -23 -44l-258 -258l258 -258q23 -23 23 -44q0 -23 -29 -52t-52 -29q-21 0 -44 23l-258 258l-258 -258q-23 -23 -44 -23 q-23 0 -52 29t-29 52z" />
<glyph unicode="&#xd8;" d="M90 593q0 183 65 323t184 216.5t275 76.5q163 0 284 -83l78 113q23 32 48 32q19 0 47 -19q35 -25 35 -52q0 -18 -15 -41l-89 -129q66 -81 101 -192t35 -245q0 -183 -65 -322.5t-184 -216t-275 -76.5q-162 0 -285 83l-77 -111q-23 -32 -47 -32q-18 0 -47 19q-37 25 -37 52 q0 17 16 41l88 127q-65 81 -100 192t-35 244zM244 593q0 -182 73 -303l495 712q-83 59 -198 59q-111 0 -195 -56.5t-129.5 -162.5t-45.5 -249zM415 185q87 -59 199 -59t195.5 56.5t129 162t45.5 248.5q0 182 -74 305z" />
<glyph unicode="&#xd9;" d="M175 413v719q0 35 16.5 50t57.5 15h2q41 0 57.5 -15t16.5 -50v-699q0 -153 75 -230t214 -77t214 77t75 230v699q0 35 16.5 50t57.5 15h2q41 0 57.5 -15t16.5 -50v-719q0 -140 -55 -237.5t-154 -147.5t-230 -50t-230 50t-154 147.5t-55 237.5zM285 1576q0 29 30 68 q33 41 67 41q19 0 37 -13l348 -256q16 -12 16 -31q0 -25 -24 -52q-22 -25 -46 -25q-14 0 -32 10l-374 219q-22 13 -22 39z" />
<glyph unicode="&#xda;" d="M175 413v719q0 35 16.5 50t57.5 15h2q41 0 57.5 -15t16.5 -50v-699q0 -153 75 -230t214 -77t214 77t75 230v699q0 35 16.5 50t57.5 15h2q41 0 57.5 -15t16.5 -50v-719q0 -140 -55 -237.5t-154 -147.5t-230 -50t-230 50t-154 147.5t-55 237.5zM445 1385q0 19 16 31 l348 256q18 13 37 13q34 0 67 -41q30 -39 30 -68q0 -26 -22 -39l-374 -219q-18 -10 -32 -10q-24 0 -46 25q-24 27 -24 52z" />
<glyph unicode="&#xdb;" d="M175 413v719q0 35 16.5 50t57.5 15h2q41 0 57.5 -15t16.5 -50v-699q0 -153 75 -230t214 -77t214 77t75 230v699q0 35 16.5 50t57.5 15h2q41 0 57.5 -15t16.5 -50v-719q0 -140 -55 -237.5t-154 -147.5t-230 -50t-230 50t-154 147.5t-55 237.5zM295 1380q0 18 16 33 l245 233q22 20 58 20t58 -20l245 -233q16 -15 16 -33q0 -21 -23 -47q-21 -24 -44 -24q-16 0 -31 12l-221 173l-221 -173q-15 -12 -31 -12q-23 0 -44 24q-23 26 -23 47z" />
<glyph unicode="&#xdc;" d="M175 413v719q0 35 16.5 50t57.5 15h2q41 0 57.5 -15t16.5 -50v-699q0 -153 75 -230t214 -77t214 77t75 230v699q0 35 16.5 50t57.5 15h2q41 0 57.5 -15t16.5 -50v-719q0 -140 -55 -237.5t-154 -147.5t-230 -50t-230 50t-154 147.5t-55 237.5zM309 1438v130q0 36 20 50.5 t75 14.5t75 -14.5t20 -50.5v-130q0 -36 -20 -50.5t-75 -14.5t-75 14.5t-20 50.5zM729 1438v130q0 36 20 50.5t75 14.5t75 -14.5t20 -50.5v-130q0 -36 -20 -50.5t-75 -14.5t-75 14.5t-20 50.5z" />
<glyph unicode="&#xdd;" d="M125 1135q0 16 11.5 28.5t36.5 23.5q33 14 52 14q30 0 48 -29l341 -526l341 526q20 29 48 29q19 0 52 -14q25 -11 36.5 -23.5t11.5 -28.5t-15 -39l-399 -609v-432q0 -35 -16.5 -50t-57.5 -15h-2q-41 0 -57.5 15t-16.5 50v432l-399 609q-15 23 -15 39zM445 1385 q0 19 16 31l348 256q18 13 37 13q34 0 67 -41q30 -39 30 -68q0 -26 -22 -39l-374 -219q-18 -10 -32 -10q-24 0 -46 25q-24 27 -24 52z" />
<glyph unicode="&#xde;" d="M235 55v1077q0 35 16.5 50t57.5 15h2q41 0 57.5 -15t16.5 -50v-186h295q121 0 207.5 -45.5t130.5 -124t44 -178.5q0 -99 -44 -177t-130 -122.5t-208 -44.5h-295v-199q0 -35 -16.5 -50t-57.5 -15h-2q-41 0 -57.5 15t-16.5 50zM385 398h274q118 0 181.5 51.5t63.5 148.5 q0 94 -62 149t-183 55h-274v-404z" />
<glyph unicode="&#xdf;" d="M235 55v888q0 110 44.5 194.5t128.5 132t198 47.5q121 0 206 -45.5t127.5 -123.5t42.5 -177q0 -91 -45 -158.5t-127 -110.5q107 -41 167 -130t60 -212q0 -118 -50 -204.5t-141 -132t-212 -45.5q-50 0 -66.5 16.5t-16.5 60.5q0 37 15 54t49 17q126 0 197 61t71 175 q0 122 -69 189.5t-187 67.5q-34 0 -48.5 16.5t-14.5 52.5t14.5 52t48.5 19q98 10 149.5 66t51.5 146q0 93 -58.5 145.5t-167.5 52.5q-103 0 -160 -63.5t-57 -173.5v-877q0 -35 -16.5 -50t-57.5 -15h-2q-41 0 -57.5 15t-16.5 50z" />
<glyph unicode="&#xe0;" d="M159 270q0 159 111.5 234t289.5 75q159 0 304 -51v85q0 97 -54.5 142.5t-175.5 45.5q-75 0 -156 -21t-154 -58q-16 -9 -31 -9q-32 0 -55 48q-11 24 -11 40q0 35 37 54q84 44 180.5 67.5t193.5 23.5q188 0 282 -84t94 -249v-558q0 -35 -15 -50t-54 -15h-2q-39 0 -54 15 t-15 50v68q-81 -69 -175.5 -107t-199.5 -38q-100 0 -177 34.5t-120 100.5t-43 157zM313 273q0 -73 50.5 -113.5t141.5 -40.5q199 0 359 165v109q-68 22 -146 33.5t-157 11.5q-115 0 -181.5 -39.5t-66.5 -125.5zM363 1306q0 29 30 68q33 41 67 41q19 0 37 -13l348 -256 q16 -12 16 -31q0 -25 -24 -52q-22 -25 -46 -25q-14 0 -32 10l-374 219q-22 13 -22 39z" />
<glyph unicode="&#xe1;" d="M159 270q0 159 111.5 234t289.5 75q159 0 304 -51v85q0 97 -54.5 142.5t-175.5 45.5q-75 0 -156 -21t-154 -58q-16 -9 -31 -9q-32 0 -55 48q-11 24 -11 40q0 35 37 54q84 44 180.5 67.5t193.5 23.5q188 0 282 -84t94 -249v-558q0 -35 -15 -50t-54 -15h-2q-39 0 -54 15 t-15 50v68q-81 -69 -175.5 -107t-199.5 -38q-100 0 -177 34.5t-120 100.5t-43 157zM313 273q0 -73 50.5 -113.5t141.5 -40.5q199 0 359 165v109q-68 22 -146 33.5t-157 11.5q-115 0 -181.5 -39.5t-66.5 -125.5zM417 1115q0 19 16 31l348 256q18 13 37 13q34 0 67 -41 q30 -39 30 -68q0 -26 -22 -39l-374 -219q-18 -10 -32 -10q-24 0 -46 25q-24 27 -24 52z" />
<glyph unicode="&#xe2;" d="M159 270q0 159 111.5 234t289.5 75q159 0 304 -51v85q0 97 -54.5 142.5t-175.5 45.5q-75 0 -156 -21t-154 -58q-16 -9 -31 -9q-32 0 -55 48q-11 24 -11 40q0 35 37 54q84 44 180.5 67.5t193.5 23.5q188 0 282 -84t94 -249v-558q0 -35 -15 -50t-54 -15h-2q-39 0 -54 15 t-15 50v68q-81 -69 -175.5 -107t-199.5 -38q-100 0 -177 34.5t-120 100.5t-43 157zM305 1110q0 18 16 33l245 233q22 20 58 20t58 -20l245 -233q16 -15 16 -33q0 -21 -23 -47q-21 -24 -44 -24q-16 0 -31 12l-221 173l-221 -173q-15 -12 -31 -12q-23 0 -44 24q-23 26 -23 47z M313 273q0 -73 50.5 -113.5t141.5 -40.5q199 0 359 165v109q-68 22 -146 33.5t-157 11.5q-115 0 -181.5 -39.5t-66.5 -125.5z" />
<glyph unicode="&#xe3;" d="M159 270q0 159 111.5 234t289.5 75q159 0 304 -51v85q0 97 -54.5 142.5t-175.5 45.5q-75 0 -156 -21t-154 -58q-16 -9 -31 -9q-32 0 -55 48q-11 24 -11 40q0 35 37 54q84 44 180.5 67.5t193.5 23.5q188 0 282 -84t94 -249v-558q0 -35 -15 -50t-54 -15h-2q-39 0 -54 15 t-15 50v68q-81 -69 -175.5 -107t-199.5 -38q-100 0 -177 34.5t-120 100.5t-43 157zM280 1156q0 19 14 36q48 62 102.5 92.5t107.5 30.5q35 0 63.5 -9.5t68.5 -27.5q35 -17 59 -25t50 -8q32 0 62.5 17t63.5 51q12 12 29 12q25 0 47 -25q21 -22 21 -45q0 -19 -14 -36 q-48 -62 -102.5 -92.5t-107.5 -30.5q-35 0 -63.5 9.5t-68.5 27.5q-35 17 -59 25t-50 8q-32 0 -62.5 -17t-63.5 -51q-12 -12 -29 -12q-25 0 -47 25q-21 22 -21 45zM313 273q0 -73 50.5 -113.5t141.5 -40.5q199 0 359 165v109q-68 22 -146 33.5t-157 11.5q-115 0 -181.5 -39.5 t-66.5 -125.5z" />
<glyph unicode="&#xe4;" d="M159 270q0 159 111.5 234t289.5 75q159 0 304 -51v85q0 97 -54.5 142.5t-175.5 45.5q-75 0 -156 -21t-154 -58q-16 -9 -31 -9q-32 0 -55 48q-11 24 -11 40q0 35 37 54q84 44 180.5 67.5t193.5 23.5q188 0 282 -84t94 -249v-558q0 -35 -15 -50t-54 -15h-2q-39 0 -54 15 t-15 50v68q-81 -69 -175.5 -107t-199.5 -38q-100 0 -177 34.5t-120 100.5t-43 157zM313 273q0 -73 50.5 -113.5t141.5 -40.5q199 0 359 165v109q-68 22 -146 33.5t-157 11.5q-115 0 -181.5 -39.5t-66.5 -125.5zM319 1168v130q0 36 20 50.5t75 14.5t75 -14.5t20 -50.5v-130 q0 -36 -20 -50.5t-75 -14.5t-75 14.5t-20 50.5zM739 1168v130q0 36 20 50.5t75 14.5t75 -14.5t20 -50.5v-130q0 -36 -20 -50.5t-75 -14.5t-75 14.5t-20 50.5z" />
<glyph unicode="&#xe5;" d="M159 270q0 159 111.5 234t289.5 75q159 0 304 -51v85q0 97 -54.5 142.5t-175.5 45.5q-75 0 -156 -21t-154 -58q-16 -9 -31 -9q-32 0 -55 48q-11 24 -11 40q0 35 37 54q84 44 180.5 67.5t193.5 23.5q188 0 282 -84t94 -249v-558q0 -35 -15 -50t-54 -15h-2q-39 0 -54 15 t-15 50v68q-81 -69 -175.5 -107t-199.5 -38q-100 0 -177 34.5t-120 100.5t-43 157zM313 273q0 -73 50.5 -113.5t141.5 -40.5q199 0 359 165v109q-68 22 -146 33.5t-157 11.5q-115 0 -181.5 -39.5t-66.5 -125.5zM378 1311q0 69 32 125.5t88.5 88.5t125.5 32t125.5 -32 t88.5 -88.5t32 -125.5t-32 -125.5t-88.5 -88.5t-125.5 -32t-125.5 32t-88.5 88.5t-32 125.5zM510 1311q0 -52 31 -83t83 -31t83 31t31 83t-31 83t-83 31t-83 -31t-31 -83z" />
<glyph unicode="&#xe6;" d="M75 240q0 167 124.5 253.5t339.5 86.5v22q0 101 -28 150t-103 49q-45 0 -88 -17t-89 -52q-19 -15 -42 -15q-28 0 -52 25q-21 24 -21 50q0 28 23 48q123 106 269 106q153 0 221 -116q40 57 96.5 86.5t127.5 29.5q152 0 222 -116t76 -328q1 -33 -14 -47.5t-49 -14.5h-399 q5 -317 164 -317q48 0 88 18.5t82 59.5q17 17 39 17q31 0 56 -31q21 -25 21 -50q0 -28 -27 -53q-55 -52 -121 -79t-138 -27q-163 0 -244 144q-48 -67 -120.5 -105.5t-153.5 -38.5q-78 0 -137 32t-91 91t-32 139zM228 240q0 -57 30 -89t81 -32q56 0 101.5 28.5t72 79 t26.5 113.5v100q-160 0 -235.5 -50t-75.5 -150zM694 580h300q-7 108 -40 164.5t-99 56.5q-71 0 -110 -52t-51 -169z" />
<glyph unicode="&#xe7;" d="M147 462q0 138 60 248t169.5 173t252.5 63q107 0 205.5 -28t182.5 -82q35 -22 35 -57q0 -23 -15 -50q-20 -41 -52 -41q-19 0 -37 13q-141 97 -319 97q-96 0 -169.5 -43t-114 -119.5t-40.5 -173.5t40.5 -173.5t114 -119.5t169.5 -43q92 0 178.5 28.5t157.5 82.5 q20 15 38 15q31 0 53 -38q17 -29 17 -52q0 -33 -32 -56q-70 -51 -160.5 -84t-187.5 -41v-94q101 1 152 -46t51 -122q0 -87 -62 -139t-183 -52q-68 0 -132 12t-115 36q-23 10 -23 35q0 14 8 35q17 45 46 45q8 0 13 -2q43 -16 94.5 -27t98.5 -11q51 0 80 16.5t29 47.5 q0 33 -27 49t-89 16l-39 -1q-15 0 -24.5 10.5t-9.5 33.5v159q-125 15 -218.5 80.5t-144.5 169t-51 230.5z" />
<glyph unicode="&#xe8;" d="M148 462q0 143 60.5 253t168.5 170.5t246 60.5q145 0 247 -58.5t156.5 -161.5t62.5 -239q2 -33 -13.5 -47.5t-49.5 -14.5h-724q7 -149 84 -225.5t217 -76.5q100 0 195.5 23t164.5 63q17 9 31 9q19 0 34.5 -14.5t24.5 -41.5q7 -18 7 -36q0 -40 -44 -61q-81 -39 -191 -63 t-222 -24q-145 0 -247 58t-155 167t-53 259zM312 565h615q-21 114 -97.5 175t-206.5 61q-124 0 -205 -62.5t-106 -173.5zM353 1306q0 29 30 68q33 41 67 41q19 0 37 -13l348 -256q16 -12 16 -31q0 -25 -24 -52q-22 -25 -46 -25q-14 0 -32 10l-374 219q-22 13 -22 39z" />
<glyph unicode="&#xe9;" d="M148 462q0 143 60.5 253t168.5 170.5t246 60.5q145 0 247 -58.5t156.5 -161.5t62.5 -239q2 -33 -13.5 -47.5t-49.5 -14.5h-724q7 -149 84 -225.5t217 -76.5q100 0 195.5 23t164.5 63q17 9 31 9q19 0 34.5 -14.5t24.5 -41.5q7 -18 7 -36q0 -40 -44 -61q-81 -39 -191 -63 t-222 -24q-145 0 -247 58t-155 167t-53 259zM312 565h615q-21 114 -97.5 175t-206.5 61q-124 0 -205 -62.5t-106 -173.5zM417 1115q0 19 16 31l348 256q18 13 37 13q34 0 67 -41q30 -39 30 -68q0 -26 -22 -39l-374 -219q-18 -10 -32 -10q-24 0 -46 25q-24 27 -24 52z" />
<glyph unicode="&#xea;" d="M148 462q0 143 60.5 253t168.5 170.5t246 60.5q145 0 247 -58.5t156.5 -161.5t62.5 -239q2 -33 -13.5 -47.5t-49.5 -14.5h-724q7 -149 84 -225.5t217 -76.5q100 0 195.5 23t164.5 63q17 9 31 9q19 0 34.5 -14.5t24.5 -41.5q7 -18 7 -36q0 -40 -44 -61q-81 -39 -191 -63 t-222 -24q-145 0 -247 58t-155 167t-53 259zM312 565h615q-21 114 -97.5 175t-206.5 61q-124 0 -205 -62.5t-106 -173.5zM315 1110q0 18 16 33l245 233q22 20 58 20t58 -20l245 -233q16 -15 16 -33q0 -21 -23 -47q-21 -24 -44 -24q-16 0 -31 12l-221 173l-221 -173 q-15 -12 -31 -12q-23 0 -44 24q-23 26 -23 47z" />
<glyph unicode="&#xeb;" d="M148 462q0 143 60.5 253t168.5 170.5t246 60.5q145 0 247 -58.5t156.5 -161.5t62.5 -239q2 -33 -13.5 -47.5t-49.5 -14.5h-724q7 -149 84 -225.5t217 -76.5q100 0 195.5 23t164.5 63q17 9 31 9q19 0 34.5 -14.5t24.5 -41.5q7 -18 7 -36q0 -40 -44 -61q-81 -39 -191 -63 t-222 -24q-145 0 -247 58t-155 167t-53 259zM312 565h615q-21 114 -97.5 175t-206.5 61q-124 0 -205 -62.5t-106 -173.5zM319 1168v130q0 36 20 50.5t75 14.5t75 -14.5t20 -50.5v-130q0 -36 -20 -50.5t-75 -14.5t-75 14.5t-20 50.5zM739 1168v130q0 36 20 50.5t75 14.5 t75 -14.5t20 -50.5v-130q0 -36 -20 -50.5t-75 -14.5t-75 14.5t-20 50.5z" />
<glyph unicode="&#xec;" d="M187 72q0 39 14.5 55.5t48.5 16.5h313v636h-253q-34 0 -48.5 16.5t-14.5 55.5t14.5 55.5t48.5 16.5h340q34 0 48.5 -15.5t14.5 -52.5v-712h321q34 0 48.5 -16.5t14.5 -55.5t-14.5 -55.5t-48.5 -16.5h-784q-34 0 -48.5 16.5t-14.5 55.5zM275 1306q0 29 30 68q33 41 67 41 q19 0 37 -13l348 -256q16 -12 16 -31q0 -25 -24 -52q-22 -25 -46 -25q-14 0 -32 10l-374 219q-22 13 -22 39z" />
<glyph unicode="&#xed;" d="M187 72q0 39 14.5 55.5t48.5 16.5h313v636h-253q-34 0 -48.5 16.5t-14.5 55.5t14.5 55.5t48.5 16.5h340q34 0 48.5 -15.5t14.5 -52.5v-712h321q34 0 48.5 -16.5t14.5 -55.5t-14.5 -55.5t-48.5 -16.5h-784q-34 0 -48.5 16.5t-14.5 55.5zM417 1115q0 19 16 31l348 256 q18 13 37 13q34 0 67 -41q30 -39 30 -68q0 -26 -22 -39l-374 -219q-18 -10 -32 -10q-24 0 -46 25q-24 27 -24 52z" />
<glyph unicode="&#xee;" d="M187 72q0 39 14.5 55.5t48.5 16.5h313v636h-253q-34 0 -48.5 16.5t-14.5 55.5t14.5 55.5t48.5 16.5h340q34 0 48.5 -15.5t14.5 -52.5v-712h321q34 0 48.5 -16.5t14.5 -55.5t-14.5 -55.5t-48.5 -16.5h-784q-34 0 -48.5 16.5t-14.5 55.5zM295 1110q0 18 16 33l245 233 q22 20 58 20t58 -20l245 -233q16 -15 16 -33q0 -21 -23 -47q-21 -24 -44 -24q-16 0 -31 12l-221 173l-221 -173q-15 -12 -31 -12q-23 0 -44 24q-23 26 -23 47z" />
<glyph unicode="&#xef;" d="M187 72q0 39 14.5 55.5t48.5 16.5h313v636h-253q-34 0 -48.5 16.5t-14.5 55.5t14.5 55.5t48.5 16.5h340q34 0 48.5 -15.5t14.5 -52.5v-712h321q34 0 48.5 -16.5t14.5 -55.5t-14.5 -55.5t-48.5 -16.5h-784q-34 0 -48.5 16.5t-14.5 55.5zM309 1168v130q0 36 20 50.5 t75 14.5t75 -14.5t20 -50.5v-130q0 -36 -20 -50.5t-75 -14.5t-75 14.5t-20 50.5zM729 1168v130q0 36 20 50.5t75 14.5t75 -14.5t20 -50.5v-130q0 -36 -20 -50.5t-75 -14.5t-75 14.5t-20 50.5z" />
<glyph unicode="&#xf0;" d="M140 432q0 134 61.5 237t169.5 160t243 57q121 0 239 -77q-73 120 -209 227l-240 -90q-17 -7 -31 -7q-18 0 -30 11.5t-22 37.5q-8 19 -8 37q0 33 43 49l149 56q-45 26 -122 65q-37 18 -37 47q0 19 14 45q24 45 58 45q17 0 35 -9q125 -61 221 -130l237 89q17 7 31 7 q18 0 30 -11.5t22 -37.5q8 -19 8 -37q0 -33 -43 -49l-161 -60q290 -267 290 -662q0 -134 -61.5 -237t-169.5 -160t-243 -57t-243 57t-169.5 160t-61.5 237zM298 432q0 -92 39.5 -161t111 -107t165.5 -38t165.5 38t111 107t39.5 161t-39.5 161t-111 107t-165.5 38t-165.5 -38 t-111 -107t-39.5 -161z" />
<glyph unicode="&#xf1;" d="M202 55v814q0 35 15 50t54 15h2q39 0 54 -15t15 -50v-163q68 105 173 172.5t212 67.5q151 0 234 -87t83 -239v-565q0 -35 -16.5 -50t-57.5 -15h-2q-41 0 -57.5 15t-16.5 50v550q0 90 -44.5 141.5t-137.5 51.5q-86 0 -169.5 -54.5t-137 -148t-53.5 -203.5v-337 q0 -35 -16.5 -50t-57.5 -15h-2q-41 0 -57.5 15t-16.5 50zM280 1156q0 19 14 36q48 62 102.5 92.5t107.5 30.5q35 0 63.5 -9.5t68.5 -27.5q35 -17 59 -25t50 -8q32 0 62.5 17t63.5 51q12 12 29 12q25 0 47 -25q21 -22 21 -45q0 -19 -14 -36q-48 -62 -102.5 -92.5 t-107.5 -30.5q-35 0 -63.5 9.5t-68.5 27.5q-35 17 -59 25t-50 8q-32 0 -62.5 -17t-63.5 -51q-12 -12 -29 -12q-25 0 -47 25q-21 22 -21 45z" />
<glyph unicode="&#xf2;" d="M134 462q0 139 62.5 249.5t172 172.5t245.5 62t245.5 -62t172 -172.5t62.5 -249.5t-62.5 -249.5t-172 -172.5t-245.5 -62t-245.5 62t-172 172.5t-62.5 249.5zM288 462q0 -98 40.5 -174.5t114.5 -119t171 -42.5t171 42.5t114.5 119t40.5 174.5t-40.5 174.5t-114.5 119 t-171 42.5t-171 -42.5t-114.5 -119t-40.5 -174.5zM335 1306q0 29 30 68q33 41 67 41q19 0 37 -13l348 -256q16 -12 16 -31q0 -25 -24 -52q-22 -25 -46 -25q-14 0 -32 10l-374 219q-22 13 -22 39z" />
<glyph unicode="&#xf3;" d="M134 462q0 139 62.5 249.5t172 172.5t245.5 62t245.5 -62t172 -172.5t62.5 -249.5t-62.5 -249.5t-172 -172.5t-245.5 -62t-245.5 62t-172 172.5t-62.5 249.5zM288 462q0 -98 40.5 -174.5t114.5 -119t171 -42.5t171 42.5t114.5 119t40.5 174.5t-40.5 174.5t-114.5 119 t-171 42.5t-171 -42.5t-114.5 -119t-40.5 -174.5zM395 1115q0 19 16 31l348 256q18 13 37 13q34 0 67 -41q30 -39 30 -68q0 -26 -22 -39l-374 -219q-18 -10 -32 -10q-24 0 -46 25q-24 27 -24 52z" />
<glyph unicode="&#xf4;" d="M134 462q0 139 62.5 249.5t172 172.5t245.5 62t245.5 -62t172 -172.5t62.5 -249.5t-62.5 -249.5t-172 -172.5t-245.5 -62t-245.5 62t-172 172.5t-62.5 249.5zM288 462q0 -98 40.5 -174.5t114.5 -119t171 -42.5t171 42.5t114.5 119t40.5 174.5t-40.5 174.5t-114.5 119 t-171 42.5t-171 -42.5t-114.5 -119t-40.5 -174.5zM295 1110q0 18 16 33l245 233q22 20 58 20t58 -20l245 -233q16 -15 16 -33q0 -21 -23 -47q-21 -24 -44 -24q-16 0 -31 12l-221 173l-221 -173q-15 -12 -31 -12q-23 0 -44 24q-23 26 -23 47z" />
<glyph unicode="&#xf5;" d="M134 462q0 139 62.5 249.5t172 172.5t245.5 62t245.5 -62t172 -172.5t62.5 -249.5t-62.5 -249.5t-172 -172.5t-245.5 -62t-245.5 62t-172 172.5t-62.5 249.5zM270 1156q0 19 14 36q48 62 102.5 92.5t107.5 30.5q35 0 63.5 -9.5t68.5 -27.5q35 -17 59 -25t50 -8 q32 0 62.5 17t63.5 51q12 12 29 12q25 0 47 -25q21 -22 21 -45q0 -19 -14 -36q-48 -62 -102.5 -92.5t-107.5 -30.5q-35 0 -63.5 9.5t-68.5 27.5q-35 17 -59 25t-50 8q-32 0 -62.5 -17t-63.5 -51q-12 -12 -29 -12q-25 0 -47 25q-21 22 -21 45zM288 462q0 -98 40.5 -174.5 t114.5 -119t171 -42.5t171 42.5t114.5 119t40.5 174.5t-40.5 174.5t-114.5 119t-171 42.5t-171 -42.5t-114.5 -119t-40.5 -174.5z" />
<glyph unicode="&#xf6;" d="M134 462q0 139 62.5 249.5t172 172.5t245.5 62t245.5 -62t172 -172.5t62.5 -249.5t-62.5 -249.5t-172 -172.5t-245.5 -62t-245.5 62t-172 172.5t-62.5 249.5zM288 462q0 -98 40.5 -174.5t114.5 -119t171 -42.5t171 42.5t114.5 119t40.5 174.5t-40.5 174.5t-114.5 119 t-171 42.5t-171 -42.5t-114.5 -119t-40.5 -174.5zM309 1168v130q0 36 20 50.5t75 14.5t75 -14.5t20 -50.5v-130q0 -36 -20 -50.5t-75 -14.5t-75 14.5t-20 50.5zM729 1168v130q0 36 20 50.5t75 14.5t75 -14.5t20 -50.5v-130q0 -36 -20 -50.5t-75 -14.5t-75 14.5t-20 50.5z " />
<glyph unicode="&#xf7;" d="M170 582q0 39 14.5 55.5t48.5 16.5h762q34 0 48.5 -16.5t14.5 -55.5t-14.5 -55.5t-48.5 -16.5h-762q-34 0 -48.5 16.5t-14.5 55.5zM509 173v104q0 34 24.5 48.5t80.5 14.5t80.5 -14.5t24.5 -48.5v-104q0 -34 -24.5 -48.5t-80.5 -14.5t-80.5 14.5t-24.5 48.5zM509 888v104 q0 34 24.5 48.5t80.5 14.5t80.5 -14.5t24.5 -48.5v-104q0 -34 -24.5 -48.5t-80.5 -14.5t-80.5 14.5t-24.5 48.5z" />
<glyph unicode="&#xf8;" d="M84 26q0 21 24 45l110 106q-40 60 -62 132.5t-22 152.5q0 139 62.5 249.5t172 172.5t245.5 62q86 0 162 -25.5t138 -72.5l108 105q25 23 45 23q23 0 51 -28q26 -28 26 -50t-25 -46l-109 -105q40 -60 62 -132.5t22 -152.5q0 -139 -62.5 -249.5t-172 -172.5t-245.5 -62 q-86 0 -162 25.5t-138 72.5l-109 -105q-25 -23 -45 -23q-22 0 -50 28q-26 28 -26 50zM288 462q0 -99 42 -177l474 458q-80 55 -190 55q-97 0 -171 -42.5t-114.5 -119t-40.5 -174.5zM423 181q82 -55 191 -55q97 0 171 42.5t114.5 119t40.5 174.5q0 99 -42 177z" />
<glyph unicode="&#xf9;" d="M184 304v565q0 35 16.5 50t57.5 15h2q41 0 57.5 -15t16.5 -50v-550q0 -90 44.5 -141.5t137.5 -51.5q86 0 169.5 54.5t137 148t53.5 203.5v337q0 35 16.5 50t57.5 15h2q41 0 57.5 -15t16.5 -50v-814q0 -35 -15 -50t-54 -15h-2q-39 0 -54 15t-15 50v163 q-68 -105 -173 -172.5t-212 -67.5q-151 0 -234 87t-83 239zM305 1306q0 29 30 68q33 41 67 41q19 0 37 -13l348 -256q16 -12 16 -31q0 -25 -24 -52q-22 -25 -46 -25q-14 0 -32 10l-374 219q-22 13 -22 39z" />
<glyph unicode="&#xfa;" d="M184 304v565q0 35 16.5 50t57.5 15h2q41 0 57.5 -15t16.5 -50v-550q0 -90 44.5 -141.5t137.5 -51.5q86 0 169.5 54.5t137 148t53.5 203.5v337q0 35 16.5 50t57.5 15h2q41 0 57.5 -15t16.5 -50v-814q0 -35 -15 -50t-54 -15h-2q-39 0 -54 15t-15 50v163 q-68 -105 -173 -172.5t-212 -67.5q-151 0 -234 87t-83 239zM415 1115q0 19 16 31l348 256q18 13 37 13q34 0 67 -41q30 -39 30 -68q0 -26 -22 -39l-374 -219q-18 -10 -32 -10q-24 0 -46 25q-24 27 -24 52z" />
<glyph unicode="&#xfb;" d="M184 304v565q0 35 16.5 50t57.5 15h2q41 0 57.5 -15t16.5 -50v-550q0 -90 44.5 -141.5t137.5 -51.5q86 0 169.5 54.5t137 148t53.5 203.5v337q0 35 16.5 50t57.5 15h2q41 0 57.5 -15t16.5 -50v-814q0 -35 -15 -50t-54 -15h-2q-39 0 -54 15t-15 50v163 q-68 -105 -173 -172.5t-212 -67.5q-151 0 -234 87t-83 239zM295 1110q0 18 16 33l245 233q22 20 58 20t58 -20l245 -233q16 -15 16 -33q0 -21 -23 -47q-21 -24 -44 -24q-16 0 -31 12l-221 173l-221 -173q-15 -12 -31 -12q-23 0 -44 24q-23 26 -23 47z" />
<glyph unicode="&#xfc;" d="M184 304v565q0 35 16.5 50t57.5 15h2q41 0 57.5 -15t16.5 -50v-550q0 -90 44.5 -141.5t137.5 -51.5q86 0 169.5 54.5t137 148t53.5 203.5v337q0 35 16.5 50t57.5 15h2q41 0 57.5 -15t16.5 -50v-814q0 -35 -15 -50t-54 -15h-2q-39 0 -54 15t-15 50v163 q-68 -105 -173 -172.5t-212 -67.5q-151 0 -234 87t-83 239zM309 1168v130q0 36 20 50.5t75 14.5t75 -14.5t20 -50.5v-130q0 -36 -20 -50.5t-75 -14.5t-75 14.5t-20 50.5zM729 1168v130q0 36 20 50.5t75 14.5t75 -14.5t20 -50.5v-130q0 -36 -20 -50.5t-75 -14.5t-75 14.5 t-20 50.5z" />
<glyph unicode="&#xfd;" d="M123 868q0 34 54 56q27 12 45 12q17 0 29 -10t23 -32l341 -683l339 683q11 22 23 32t29 10q18 0 45 -12q27 -11 40 -24.5t13 -31.5q0 -16 -10 -35l-597 -1191q-11 -22 -23 -32t-28 -10q-18 0 -45 12q-27 11 -39.5 24.5t-12.5 30.5q0 16 10 36l171 340l-397 790 q-10 19 -10 35zM417 1115q0 19 16 31l348 256q18 13 37 13q34 0 67 -41q30 -39 30 -68q0 -26 -22 -39l-374 -219q-18 -10 -32 -10q-24 0 -46 25q-24 27 -24 52z" />
<glyph unicode="&#xfe;" d="M192 -333v1590q0 35 16.5 50t57.5 15h2q41 0 57.5 -15t16.5 -50v-470q62 76 142.5 117.5t174.5 41.5q124 0 221.5 -58.5t153 -168t55.5 -257.5t-55.5 -257.5t-153 -168t-221.5 -58.5q-188 0 -317 165v-476q0 -35 -16.5 -50t-57.5 -15h-2q-41 0 -57.5 15t-16.5 50z M342 462q0 -104 39.5 -180t109 -116t158.5 -40t153.5 42.5t98.5 119t34 174.5t-34 174.5t-98.5 119t-153.5 42.5t-158.5 -40t-109 -116t-39.5 -180z" />
<glyph unicode="&#xff;" d="M123 868q0 34 54 56q27 12 45 12q17 0 29 -10t23 -32l341 -683l339 683q11 22 23 32t29 10q18 0 45 -12q27 -11 40 -24.5t13 -31.5q0 -16 -10 -35l-597 -1191q-11 -22 -23 -32t-28 -10q-18 0 -45 12q-27 11 -39.5 24.5t-12.5 30.5q0 16 10 36l171 340l-397 790 q-10 19 -10 35zM311 1168v130q0 36 20 50.5t75 14.5t75 -14.5t20 -50.5v-130q0 -36 -20 -50.5t-75 -14.5t-75 14.5t-20 50.5zM731 1168v130q0 36 20 50.5t75 14.5t75 -14.5t20 -50.5v-130q0 -36 -20 -50.5t-75 -14.5t-75 14.5t-20 50.5z" />
<glyph unicode="&#x152;" d="M84 593q0 186 65 321.5t184 206t278 66.5h447q34 0 48.5 -16.5t14.5 -55.5t-14.5 -55.5t-48.5 -16.5h-322v-359h247q34 0 48.5 -16.5t14.5 -55.5t-14.5 -55.5t-48.5 -16.5h-247v-396h342q34 0 48.5 -16.5t14.5 -55.5t-14.5 -55.5t-48.5 -16.5h-467q-159 -4 -278 66 t-184 205.5t-65 321.5zM238 593q0 -143 43 -244t121.5 -155t183.5 -58v914q-105 -4 -183.5 -57.5t-121.5 -155t-43 -244.5z" />
<glyph unicode="&#x153;" d="M70 462q0 233 79 358.5t233 125.5q156 0 231 -140q40 70 101 105t139 35q152 0 222 -116t76 -328q1 -33 -14 -47.5t-49 -14.5h-399q5 -317 164 -317q48 0 88 18.5t82 59.5q17 17 39 17q31 0 56 -31q21 -25 21 -50q0 -28 -27 -53q-55 -52 -121 -79t-138 -27 q-78 0 -139 34.5t-101 103.5q-75 -138 -231 -138q-154 0 -233 125.5t-79 358.5zM228 462q0 -175 37.5 -255.5t116.5 -80.5t116.5 80.5t37.5 255.5t-37.5 255.5t-116.5 80.5t-116.5 -80.5t-37.5 -255.5zM694 580h300q-7 108 -40 164.5t-99 56.5q-71 0 -110 -52t-51 -169z" />
<glyph unicode="&#x178;" d="M125 1135q0 16 11.5 28.5t36.5 23.5q33 14 52 14q30 0 48 -29l341 -526l341 526q20 29 48 29q19 0 52 -14q25 -11 36.5 -23.5t11.5 -28.5t-15 -39l-399 -609v-432q0 -35 -16.5 -50t-57.5 -15h-2q-41 0 -57.5 15t-16.5 50v432l-399 609q-15 23 -15 39zM309 1438v130 q0 36 20 50.5t75 14.5t75 -14.5t20 -50.5v-130q0 -36 -20 -50.5t-75 -14.5t-75 14.5t-20 50.5zM729 1438v130q0 36 20 50.5t75 14.5t75 -14.5t20 -50.5v-130q0 -36 -20 -50.5t-75 -14.5t-75 14.5t-20 50.5z" />
<glyph unicode="&#x2c6;" d="M295 1110q0 18 16 33l245 233q22 20 58 20t58 -20l245 -233q16 -15 16 -33q0 -21 -23 -47q-21 -24 -44 -24q-16 0 -31 12l-221 173l-221 -173q-15 -12 -31 -12q-23 0 -44 24q-23 26 -23 47z" />
<glyph unicode="&#x2dc;" d="M270 1156q0 19 14 36q48 62 102.5 92.5t107.5 30.5q35 0 63.5 -9.5t68.5 -27.5q35 -17 59 -25t50 -8q32 0 62.5 17t63.5 51q12 12 29 12q25 0 47 -25q21 -22 21 -45q0 -19 -14 -36q-48 -62 -102.5 -92.5t-107.5 -30.5q-35 0 -63.5 9.5t-68.5 27.5q-35 17 -59 25t-50 8 q-32 0 -62.5 -17t-63.5 -51q-12 -12 -29 -12q-25 0 -47 25q-21 22 -21 45z" />
<glyph unicode="&#x2000;" horiz-adv-x="898" />
<glyph unicode="&#x2001;" horiz-adv-x="1797" />
<glyph unicode="&#x2002;" horiz-adv-x="898" />
<glyph unicode="&#x2003;" horiz-adv-x="1797" />
<glyph unicode="&#x2004;" horiz-adv-x="599" />
<glyph unicode="&#x2005;" horiz-adv-x="449" />
<glyph unicode="&#x2006;" horiz-adv-x="299" />
<glyph unicode="&#x2007;" horiz-adv-x="299" />
<glyph unicode="&#x2008;" horiz-adv-x="224" />
<glyph unicode="&#x2009;" horiz-adv-x="359" />
<glyph unicode="&#x200a;" horiz-adv-x="99" />
<glyph unicode="&#x2010;" d="M170 582q0 39 14.5 55.5t48.5 16.5h762q34 0 48.5 -16.5t14.5 -55.5t-14.5 -55.5t-48.5 -16.5h-762q-34 0 -48.5 16.5t-14.5 55.5z" />
<glyph unicode="&#x2011;" d="M170 582q0 39 14.5 55.5t48.5 16.5h762q34 0 48.5 -16.5t14.5 -55.5t-14.5 -55.5t-48.5 -16.5h-762q-34 0 -48.5 16.5t-14.5 55.5z" />
<glyph unicode="&#x2012;" d="M170 582q0 39 14.5 55.5t48.5 16.5h762q34 0 48.5 -16.5t14.5 -55.5t-14.5 -55.5t-48.5 -16.5h-762q-34 0 -48.5 16.5t-14.5 55.5z" />
<glyph unicode="&#x2013;" d="M170 582q0 39 14.5 55.5t48.5 16.5h762q34 0 48.5 -16.5t14.5 -55.5t-14.5 -55.5t-48.5 -16.5h-762q-34 0 -48.5 16.5t-14.5 55.5z" />
<glyph unicode="&#x2014;" d="M-30 582q0 39 14.5 55.5t48.5 16.5h1162q34 0 48.5 -16.5t14.5 -55.5t-14.5 -55.5t-48.5 -16.5h-1162q-34 0 -48.5 16.5t-14.5 55.5z" />
<glyph unicode="&#x2018;" d="M424 783q0 14 7 28l208 457q18 39 81 39q33 0 50.5 -12t17.5 -35q0 -4 -2 -16l-97 -454q-8 -38 -49 -38h-183q-16 0 -24.5 8.5t-8.5 22.5z" />
<glyph unicode="&#x2019;" d="M437 761q0 4 2 16l97 454q8 38 49 38h183q16 0 24.5 -8.5t8.5 -22.5t-7 -28l-208 -457q-18 -39 -81 -39q-33 0 -50.5 12t-17.5 35z" />
<glyph unicode="&#x201a;" d="M437 -214q0 4 2 16l97 454q8 38 49 38h183q16 0 24.5 -8.5t8.5 -22.5t-7 -28l-208 -457q-18 -39 -81 -39q-33 0 -50.5 12t-17.5 35z" />
<glyph unicode="&#x201c;" d="M179 783q0 14 7 28l208 457q18 39 81 39q33 0 50.5 -12t17.5 -35q0 -4 -2 -16l-97 -454q-8 -38 -49 -38h-183q-16 0 -24.5 8.5t-8.5 22.5zM669 783q0 14 7 28l208 457q18 39 81 39q33 0 50.5 -12t17.5 -35q0 -4 -2 -16l-97 -454q-8 -38 -49 -38h-183q-16 0 -24.5 8.5 t-8.5 22.5z" />
<glyph unicode="&#x201d;" d="M192 761q0 4 2 16l97 454q8 38 49 38h183q16 0 24.5 -8.5t8.5 -22.5t-7 -28l-208 -457q-18 -39 -81 -39q-33 0 -50.5 12t-17.5 35zM682 761q0 4 2 16l97 454q8 38 49 38h183q16 0 24.5 -8.5t8.5 -22.5t-7 -28l-208 -457q-18 -39 -81 -39q-33 0 -50.5 12t-17.5 35z" />
<glyph unicode="&#x201e;" d="M192 -214q0 4 2 16l97 454q8 38 49 38h183q16 0 24.5 -8.5t8.5 -22.5t-7 -28l-208 -457q-18 -39 -81 -39q-33 0 -50.5 12t-17.5 35zM682 -214q0 4 2 16l97 454q8 38 49 38h183q16 0 24.5 -8.5t8.5 -22.5t-7 -28l-208 -457q-18 -39 -81 -39q-33 0 -50.5 12t-17.5 35z" />
<glyph unicode="&#x2022;" d="M382 453v302q0 52 54.5 75t177.5 23t177.5 -23t54.5 -75v-302q0 -52 -54.5 -75t-177.5 -23t-177.5 23t-54.5 75z" />
<glyph unicode="&#x2026;" d="M109 43v134q0 28 24.5 40.5t80.5 12.5t80.5 -12.5t24.5 -40.5v-134q0 -28 -24.5 -40.5t-80.5 -12.5t-80.5 12.5t-24.5 40.5zM509 43v134q0 28 24.5 40.5t80.5 12.5t80.5 -12.5t24.5 -40.5v-134q0 -28 -24.5 -40.5t-80.5 -12.5t-80.5 12.5t-24.5 40.5zM909 43v134 q0 28 24.5 40.5t80.5 12.5t80.5 -12.5t24.5 -40.5v-134q0 -28 -24.5 -40.5t-80.5 -12.5t-80.5 12.5t-24.5 40.5z" />
<glyph unicode="&#x202f;" horiz-adv-x="359" />
<glyph unicode="&#x2039;" d="M393 564q0 15 9 24l306 343q12 15 32 15q28 0 60 -28q31 -27 31 -51q0 -16 -14 -32l-246 -271l246 -271q14 -16 14 -32q0 -24 -31 -51q-32 -28 -60 -28q-20 0 -32 15l-306 343q-9 11 -9 24z" />
<glyph unicode="&#x203a;" d="M397 261q0 16 14 32l246 271l-246 271q-14 16 -14 32q0 24 31 51q32 28 60 28q20 0 32 -15l306 -343q9 -9 9 -24q0 -13 -9 -24l-306 -343q-12 -15 -32 -15q-28 0 -60 28q-31 27 -31 51z" />
<glyph unicode="&#x205f;" horiz-adv-x="449" />
<glyph unicode="&#x20ac;" d="M90 442q0 39 14.5 55.5t48.5 16.5h80q-3 39 -3 80q0 44 3 86h-80q-34 0 -48.5 16.5t-14.5 55.5t14.5 55.5t48.5 16.5h103q46 182 164 283.5t294 101.5q101 0 187 -22.5t176 -73.5q37 -22 37 -56q0 -19 -13 -48q-21 -44 -53 -44q-14 0 -34 11q-73 44 -145 64.5t-155 20.5 q-112 0 -187.5 -61.5t-111.5 -175.5h350q34 0 48.5 -16.5t14.5 -55.5t-14.5 -55.5t-48.5 -16.5h-377q-4 -36 -4 -86q0 -41 3 -80h378q34 0 48.5 -16.5t14.5 -55.5t-14.5 -55.5t-48.5 -16.5h-352q35 -117 111.5 -180.5t189.5 -63.5q83 0 155 20.5t145 64.5q20 11 34 11 q32 0 53 -44q13 -29 13 -48q0 -34 -37 -56q-90 -51 -176 -73.5t-187 -22.5q-178 0 -296.5 103.5t-162.5 288.5h-102q-34 0 -48.5 16.5t-14.5 55.5z" />
<glyph unicode="&#x2122;" d="M60 1252q0 33 14.5 46.5t48.5 13.5h382q34 0 48.5 -13.5t14.5 -46.5t-14.5 -46t-48.5 -13h-129v-380q0 -35 -14 -50t-48 -15t-48 15t-14 50v380h-129q-34 0 -48.5 13t-14.5 46zM665 813l30 444q2 35 18.5 50t50.5 15q50 0 62 -26l142 -299l142 299q12 26 62 26 q34 0 50.5 -15t18.5 -50l30 -444q2 -35 -10.5 -50t-46.5 -15t-47.5 14.5t-15.5 50.5l-18 259l-93 -192q-12 -23 -31 -35.5t-41 -12.5t-41.5 12.5t-30.5 35.5l-94 192l-17 -259q-2 -36 -15.5 -50.5t-47.5 -14.5t-46.5 15t-10.5 50z" />
<glyph unicode="&#x25fc;" horiz-adv-x="940" d="M0 0v940h940v-940h-940z" />
<glyph unicode="&#xfb01;" horiz-adv-x="2456" d="M187 772q0 39 14.5 55.5t48.5 16.5h198v123q0 165 92.5 257.5t259.5 92.5q134 0 266 -51q49 -19 49 -65q0 -8 -4 -28q-14 -56 -52 -56q-9 0 -22 5q-127 49 -237 49q-202 0 -202 -217v-110h346q34 0 48.5 -16.5t14.5 -55.5t-14.5 -55.5t-48.5 -16.5h-346v-645 q0 -35 -16.5 -50t-57.5 -15h-2q-41 0 -57.5 15t-16.5 50v645h-198q-34 0 -48.5 16.5t-14.5 55.5zM1415 72q0 39 14.5 55.5t48.5 16.5h313v636h-253q-34 0 -48.5 16.5t-14.5 55.5t14.5 55.5t48.5 16.5h340q34 0 48.5 -15.5t14.5 -52.5v-712h321q34 0 48.5 -16.5t14.5 -55.5 t-14.5 -55.5t-48.5 -16.5h-784q-34 0 -48.5 16.5t-14.5 55.5zM1751 1168v130q0 36 20 50.5t75 14.5t75 -14.5t20 -50.5v-130q0 -36 -20 -50.5t-75 -14.5t-75 14.5t-20 50.5z" />
<glyph unicode="&#xfb02;" horiz-adv-x="2456" d="M187 772q0 39 14.5 55.5t48.5 16.5h198v123q0 165 92.5 257.5t259.5 92.5q134 0 266 -51q49 -19 49 -65q0 -8 -4 -28q-14 -56 -52 -56q-9 0 -22 5q-127 49 -237 49q-202 0 -202 -217v-110h346q34 0 48.5 -16.5t14.5 -55.5t-14.5 -55.5t-48.5 -16.5h-346v-645 q0 -35 -16.5 -50t-57.5 -15h-2q-41 0 -57.5 15t-16.5 50v645h-198q-34 0 -48.5 16.5t-14.5 55.5zM1405 72q0 39 14.5 55.5t48.5 16.5h313v1024h-273q-34 0 -48.5 16.5t-14.5 55.5t14.5 55.5t48.5 16.5h360q34 0 48.5 -15.5t14.5 -52.5v-1100h321q34 0 48.5 -16.5t14.5 -55.5 t-14.5 -55.5t-48.5 -16.5h-784q-34 0 -48.5 16.5t-14.5 55.5z" />
</font>
</defs>
</svg>
