<?xml version="1.0" standalone="no"?>
<!DOCTYPE svg PUBLIC "-//W3C//DTD SVG 1.1//EN" "http://www.w3.org/Graphics/SVG/1.1/DTD/svg11.dtd" >
<svg xmlns="http://www.w3.org/2000/svg">
<metadata></metadata>
<defs>
<font id="courier_prime_sansbold" horiz-adv-x="1228" >
<font-face units-per-em="2048" ascent="1638" descent="-410" />
<missing-glyph horiz-adv-x="500" />
<glyph horiz-adv-x="0" />
<glyph horiz-adv-x="682" />
<glyph unicode=" " />
<glyph unicode="!" d="M458 1219q-2 26 8 38t33 12h230q23 0 33 -12t8 -38l-57 -657q-5 -58 -99 -58t-99 58zM459 53v214q0 34 36.5 48.5t118.5 14.5t118.5 -14.5t36.5 -48.5v-214q0 -34 -36.5 -48.5t-118.5 -14.5t-118.5 14.5t-36.5 48.5z" />
<glyph unicode="&#x22;" d="M186 1219q-6 50 41 50h234q42 0 42 -39l-1 -11l-55 -480q-4 -33 -28 -50.5t-75 -17.5t-75 17.5t-28 50.5zM726 1219q-6 50 41 50h234q42 0 42 -39l-1 -11l-55 -480q-4 -33 -28 -50.5t-75 -17.5t-75 17.5t-28 50.5z" />
<glyph unicode="#" d="M50 369q0 47 6.5 71t19.5 33t37 9h159l60 233h-129q-24 0 -37 8.5t-19.5 32.5t-6.5 71t6.5 71t19.5 33t37 9h188l61 236q4 16 25.5 24.5t51.5 8.5q45 0 81.5 -16t36.5 -42q0 -6 -1 -9l-53 -202h222l61 236q4 16 25.5 24.5t51.5 8.5q45 0 81.5 -16t36.5 -42q0 -6 -1 -9 l-53 -202h98q24 0 37 -9t19.5 -33t6.5 -71t-6.5 -71t-19.5 -32.5t-37 -8.5h-156l-61 -233h127q24 0 37 -9t19.5 -33t6.5 -71t-6.5 -71t-19.5 -32.5t-37 -8.5h-185l-64 -246q-4 -16 -25.5 -24.5t-51.5 -8.5q-45 0 -81.5 16t-36.5 42q0 6 1 9l55 212h-221l-64 -246 q-4 -16 -25.5 -24.5t-51.5 -8.5q-45 0 -81.5 16t-36.5 42q0 6 1 9l55 212h-100q-24 0 -37 8.5t-19.5 32.5t-6.5 71zM474 482h222l60 233h-221z" />
<glyph unicode="$" d="M164 785q0 88 44 153.5t124.5 103.5t188.5 43v164q0 35 19 49t74 14t74 -14t19 -49v-172q141 -17 279 -63q51 -18 51 -72q0 -22 -9 -54q-24 -84 -75 -84q-10 0 -25 5q-112 40 -221 56v-151q124 -13 193 -39q171 -63 171 -238q0 -135 -92.5 -220t-271.5 -97v-182 q0 -35 -19 -49t-74 -14t-74 14t-19 49v186q-156 15 -305 66q-51 18 -51 72q0 23 9 54q24 84 75 84q10 0 25 -5q122 -44 247 -59v161q-143 16 -222 58q-135 70 -135 230zM422 789q0 -27 25 -41t74 -20v143q-99 -13 -99 -82zM707 335q56 8 80.5 28.5t24.5 52.5q0 53 -105 64 v-145z" />
<glyph unicode="%" d="M50 935q0 74 37 137t100 100t137 37t137 -37t100 -100t37 -137t-37 -137t-100 -100t-137 -37t-137 37t-100 100t-37 137zM85 209q0 17 23 40l877 834q20 20 39 20q14 0 31.5 -11.5t42.5 -37.5q44 -45 44 -73q0 -19 -22 -41l-877 -834q-23 -21 -40 -21q-14 0 -31.5 11.5 t-41.5 37.5q-45 48 -45 75zM237 935q0 -36 25.5 -61.5t61.5 -25.5t61.5 25.5t25.5 61.5t-25.5 61.5t-61.5 25.5t-61.5 -25.5t-25.5 -61.5zM630 252q0 74 37 137t100 100t137 37t137 -37t100 -100t37 -137t-37 -137t-100 -100t-137 -37t-137 37t-100 100t-37 137zM817 252 q0 -36 25.5 -61.5t61.5 -25.5t61.5 25.5t25.5 61.5t-25.5 61.5t-61.5 25.5t-61.5 -25.5t-25.5 -61.5z" />
<glyph unicode="&#x26;" d="M131 320q0 96 44.5 171.5t133.5 135.5q-77 116 -77 239q0 100 44.5 177.5t130 121.5t203.5 44q79 0 152.5 -18.5t132.5 -51.5q36 -20 36 -59q0 -29 -21 -75q-36 -80 -74 -80q-11 0 -22 6q-95 51 -196 51q-57 0 -95 -33t-38 -91q0 -48 26 -93.5t77 -98.5l186 -194 q33 78 59 162q7 21 21 31t39 10q30 0 81 -15q51 -16 71.5 -33t20.5 -39q0 -10 -5 -27q-50 -156 -111 -272l140 -146q22 -24 22 -44q0 -37 -67 -79q-35 -22 -59 -32t-42 -10q-25 0 -48 23l-91 95q-129 -118 -315 -118q-108 0 -189.5 43.5t-125.5 121t-44 177.5zM379 330 q0 -57 35.5 -91t95.5 -34q71 0 134 58l-197 207q-34 -31 -51 -65t-17 -75z" />
<glyph unicode="'" d="M456 1219q-6 50 41 50h234q42 0 42 -39l-1 -11l-55 -480q-4 -33 -28 -50.5t-75 -17.5t-75 17.5t-28 50.5z" />
<glyph unicode="(" d="M257 519q0 205 72 372t187.5 286t254.5 198q14 8 28 8q23 0 47.5 -18.5t44.5 -49.5q36 -54 36 -95q0 -27 -18 -39q-200 -125 -302 -286.5t-102 -375.5t102 -375.5t302 -286.5q18 -12 18 -39q0 -41 -36 -95q-20 -31 -44.5 -49.5t-47.5 -18.5q-14 0 -28 8 q-139 79 -254.5 198t-187.5 286t-72 372z" />
<glyph unicode=")" d="M301 -182q0 27 18 39q200 125 302 286.5t102 375.5t-102 375.5t-302 286.5q-18 12 -18 39q0 41 36 95q20 31 44.5 49.5t47.5 18.5q14 0 28 -8q139 -79 254.5 -198t187.5 -286t72 -372t-72 -372t-187.5 -286t-254.5 -198q-14 -8 -28 -8q-23 0 -47.5 18.5t-44.5 49.5 q-36 54 -36 95z" />
<glyph unicode="*" d="M189 858q0 25 8 48q14 43 41.5 65t61.5 22t66 -20l179 -108l-47 204q-4 15 -4 32q0 47 31.5 77.5t88.5 30.5t88.5 -30.5t31.5 -77.5q0 -17 -4 -32l-47 -204l179 108q32 20 66 20t61.5 -22t41.5 -65q8 -23 8 -48q0 -44 -29 -72.5t-76 -32.5l-208 -19l158 -137 q21 -19 32.5 -41.5t11.5 -45.5q0 -54 -55 -95q-38 -28 -77 -28q-32 0 -58.5 19.5t-40.5 53.5l-83 193l-83 -193q-14 -34 -40.5 -53.5t-58.5 -19.5q-39 0 -77 28q-55 41 -55 95q0 23 11.5 45.5t32.5 41.5l158 137l-208 19q-47 4 -76 32.5t-29 72.5z" />
<glyph unicode="+" d="M170 582q0 47 6.5 71t19.5 33t37 9h268v268q0 24 9 37t33 19.5t71 6.5t71 -6.5t32.5 -19.5t8.5 -37v-268h269q24 0 37 -9t19.5 -33t6.5 -71t-6.5 -71t-19.5 -32.5t-37 -8.5h-269v-269q0 -24 -8.5 -37t-32.5 -19.5t-71 -6.5t-71 6.5t-33 19.5t-9 37v269h-268 q-24 0 -37 8.5t-19.5 32.5t-6.5 71z" />
<glyph unicode="," d="M353 -241q0 9 1 13l100 542q4 19 17.5 29.5t34.5 10.5h243q17 0 26 -9t9 -24t-7 -30l-237 -537q-20 -48 -106 -48q-38 0 -59.5 14t-21.5 39z" />
<glyph unicode="-" d="M170 582q0 47 6.5 71t19.5 33t37 9h762q24 0 37 -9t19.5 -33t6.5 -71t-6.5 -71t-19.5 -32.5t-37 -8.5h-762q-24 0 -37 8.5t-19.5 32.5t-6.5 71z" />
<glyph unicode="." d="M449 53v254q0 34 39 48.5t126 14.5t126 -14.5t39 -48.5v-254q0 -34 -39 -48.5t-126 -14.5t-126 14.5t-39 48.5z" />
<glyph unicode="/" d="M159 -282q0 11 4 20l666 1618q18 43 82 43q67 0 112.5 -22t45.5 -56q0 -11 -4 -20l-666 -1618q-18 -43 -82 -43q-67 0 -112.5 22t-45.5 56z" />
<glyph unicode="0" d="M136 593q0 180 57.5 320t165.5 218t255 78t255 -78t165.5 -218t57.5 -320t-57.5 -319.5t-165.5 -217.5t-255 -78t-255 78t-165.5 217.5t-57.5 319.5zM398 593q0 -188 56 -283t160 -95t160 95t56 283t-56 283.5t-160 95.5t-160 -95.5t-56 -283.5z" />
<glyph unicode="1" d="M186 898q0 21 9.5 35t29.5 25l422 238q28 16 57 16t47 -16t18 -48v-923h236q35 0 49 -23.5t14 -89.5q0 -45 -6.5 -69t-19.5 -33.5t-37 -9.5h-732q-24 0 -37 9.5t-19.5 33.5t-6.5 69q0 66 14 89.5t49 23.5h246v644l-209 -119q-15 -9 -29 -9q-19 0 -37 20t-38 64t-20 73z " />
<glyph unicode="2" d="M188 103q0 40 5 60t19 33l393 390q61 62 91.5 97t48 69.5t17.5 71.5q0 70 -41.5 109t-119.5 39q-129 0 -281 -75q-16 -8 -30 -8q-48 0 -78 85q-12 36 -12 62q0 27 12 45t35 31q175 97 363 97q131 0 222 -46t137.5 -130.5t46.5 -198.5q0 -101 -51 -191.5t-151 -187.5 l-225 -220h402q24 0 37 -10t19.5 -35.5t6.5 -72.5t-6.5 -72.5t-19.5 -35t-37 -9.5h-740q-24 0 -37 8.5t-19.5 30.5t-6.5 64z" />
<glyph unicode="3" d="M174 119q0 29 16 76q32 88 75 88q9 0 21 -5q64 -30 133.5 -46.5t134.5 -16.5q106 0 160 37t54 108q0 69 -43 103.5t-127 34.5h-133q-35 0 -49 23.5t-14 88.5t14 89t49 24h106q89 0 132.5 31.5t43.5 98.5q0 63 -44.5 93.5t-128.5 30.5q-65 0 -134 -16.5t-134 -47.5 q-10 -5 -19 -5q-42 0 -76 86q-17 43 -17 74q0 45 37 64q145 77 349 77q202 0 311.5 -87.5t109.5 -252.5q0 -171 -141 -245q83 -38 129.5 -105.5t46.5 -162.5q0 -187 -127 -282.5t-355 -95.5q-198 0 -343 77q-37 19 -37 64z" />
<glyph unicode="4" d="M120 377q0 75 17 99l472 664q28 35 62.5 52t86.5 17q63 0 94 -24t31 -66v-624h152q24 0 37 -10t19.5 -35.5t6.5 -72.5t-6.5 -72.5t-19.5 -35t-37 -9.5h-152v-197q0 -34 -14.5 -48.5t-48.5 -14.5h-124q-34 0 -48.5 14.5t-14.5 48.5v197h-450q-24 0 -37 9.5t-19.5 35 t-6.5 72.5zM409 495h232l19 361z" />
<glyph unicode="5" d="M177 132q0 32 17 76q33 87 75 87q10 0 20 -5q70 -35 143.5 -55t141.5 -20q94 0 149 42.5t55 126.5q0 79 -45.5 122t-128.5 43q-94 0 -192 -36q-42 -16 -82 -16q-64 0 -90.5 15t-24.5 50l33 560q2 35 16.5 50t48.5 15h608q24 0 37 -10t19.5 -35.5t6.5 -72.5t-6.5 -72.5 t-19.5 -35t-37 -9.5h-443l-13 -213q96 37 192 37q124 0 211.5 -49.5t132.5 -138.5t45 -207q0 -200 -125 -301.5t-347 -101.5q-95 0 -188.5 23.5t-171.5 65.5q-37 21 -37 65z" />
<glyph unicode="6" d="M163 512q0 211 92.5 363.5t275 238t446.5 95.5q33 1 47.5 -41t14.5 -111q0 -87 -41 -90q-184 -9 -304.5 -47t-187 -110t-86.5 -186q54 60 121 88.5t154 28.5q111 0 197.5 -47.5t134.5 -132.5t48 -195q0 -112 -56.5 -200.5t-158 -138t-229.5 -49.5q-126 0 -222 51 t-161 147q-41 61 -63 147.5t-22 188.5zM440 371q0 -46 22.5 -85t66 -62t101.5 -23q86 0 139.5 44.5t53.5 119.5q0 77 -50 120.5t-135 43.5q-58 0 -103 -20t-70 -56t-25 -82z" />
<glyph unicode="7" d="M168 1069q0 47 6.5 72.5t19.5 35.5t37 10h766q24 0 37 -8.5t19.5 -30.5t6.5 -64q0 -49 -9 -72l-417 -988q-19 -46 -80 -46q-26 0 -64 9q-54 13 -79.5 31.5t-25.5 46.5q0 15 7 32l363 855h-524q-24 0 -37 9.5t-19.5 35t-6.5 72.5z" />
<glyph unicode="8" d="M174 335q0 108 52 178.5t147 105.5q-77 34 -118.5 96.5t-41.5 155.5t48.5 170.5t139.5 122.5t213 45t213 -45t139.5 -122.5t48.5 -170.5q0 -92 -42 -155t-118 -97q95 -35 147 -105.5t52 -178.5q0 -110 -54.5 -191t-154 -123.5t-231.5 -42.5t-231.5 42.5t-154 123.5 t-54.5 191zM434 356q0 -73 47 -116.5t133 -43.5t133 43.5t47 116.5q0 74 -47 118t-133 44t-133 -44t-47 -118zM457 851q0 -63 42 -101t115 -38t115 38t42 101t-43 101.5t-114 38.5t-114 -38.5t-43 -101.5z" />
<glyph unicode="9" d="M153 821q0 112 56.5 200.5t158 138t229.5 49.5q126 0 222 -51t161 -147q41 -61 63 -147.5t22 -188.5q0 -326 -182.5 -504t-571.5 -193q-26 -1 -40.5 25t-19.5 82q-2 17 -2 45q0 87 41 90q182 9 289.5 46.5t160.5 108.5t68 188q-54 -60 -121 -88.5t-154 -28.5 q-111 0 -197.5 47.5t-134.5 132.5t-48 195zM405 822q0 -77 50 -120.5t135 -43.5q58 0 103 20t70 56t25 82t-22.5 85t-66 62t-101.5 23q-86 0 -139.5 -44.5t-53.5 -119.5z" />
<glyph unicode=":" d="M449 53v214q0 34 39 48.5t126 14.5t126 -14.5t39 -48.5v-214q0 -34 -39 -48.5t-126 -14.5t-126 14.5t-39 48.5zM449 657v214q0 34 39 48.5t126 14.5t126 -14.5t39 -48.5v-214q0 -34 -39 -48.5t-126 -14.5t-126 14.5t-39 48.5z" />
<glyph unicode=";" d="M373 -241q0 9 1 13l100 542q4 19 17.5 29.5t34.5 10.5h243q17 0 26 -9t9 -24t-7 -30l-237 -537q-20 -48 -106 -48q-38 0 -59.5 14t-21.5 39zM449 657v214q0 34 39 48.5t126 14.5t126 -14.5t39 -48.5v-214q0 -34 -39 -48.5t-126 -14.5t-126 14.5t-39 48.5z" />
<glyph unicode="&#x3c;" d="M120 583q0 41 10.5 61t35.5 33l780 402q20 10 33 10q20 0 38 -18t39 -60q26 -52 26 -83q0 -34 -36 -53l-585 -292l585 -292q36 -19 36 -53q0 -31 -26 -83q-21 -42 -39 -60t-38 -18q-13 0 -33 10l-780 402q-25 13 -35.5 33t-10.5 61z" />
<glyph unicode="=" d="M170 353q0 47 6.5 71t19.5 33t37 9h762q24 0 37 -9t19.5 -33t6.5 -71t-6.5 -71t-19.5 -32.5t-37 -8.5h-762q-24 0 -37 8.5t-19.5 32.5t-6.5 71zM170 811q0 47 6.5 71t19.5 33t37 9h762q24 0 37 -9t19.5 -33t6.5 -71t-6.5 -71t-19.5 -32.5t-37 -8.5h-762q-24 0 -37 8.5 t-19.5 32.5t-6.5 71z" />
<glyph unicode="&#x3e;" d="M146 238q0 34 36 53l585 292l-585 292q-36 19 -36 53q0 31 26 83q21 42 39 60t38 18q13 0 33 -10l780 -402q25 -13 35.5 -33t10.5 -61t-10.5 -61t-35.5 -33l-780 -402q-20 -10 -33 -10q-20 0 -38 18t-39 60q-26 52 -26 83z" />
<glyph unicode="?" d="M266 1146q0 41 38 58q67 30 144.5 47.5t151.5 17.5q193 0 295.5 -94t102.5 -261q0 -139 -75.5 -218.5t-231.5 -122.5l-6 -86q-2 -25 -24 -36.5t-77 -11.5t-77 11.5t-24 36.5l-12 209q-2 44 31 51l103 20q72 14 107 48.5t35 94.5q0 65 -40.5 98.5t-118.5 33.5 q-99 0 -212 -46q-9 -4 -20 -4q-20 0 -37.5 19t-34.5 62q-18 45 -18 73zM439 53v174q0 34 34 48.5t111 14.5t111 -14.5t34 -48.5v-174q0 -34 -34 -48.5t-111 -14.5t-111 14.5t-34 48.5z" />
<glyph unicode="@" d="M33 389q0 192 81.5 349.5t225 248.5t320.5 91q157 0 276.5 -70t185 -194.5t65.5 -282.5q0 -127 -39.5 -219.5t-109 -141t-157.5 -48.5q-69 0 -114.5 38t-62.5 101q-77 -144 -197 -144q-84 0 -135 63t-51 177q0 103 44 206.5t117 170t156 66.5q91 0 128 -115l33 69 q5 9 29 9q19 0 40 -6q26 -7 41 -17.5t11 -23.5l-72 -312q-8 -32 -8 -53q0 -36 16 -54.5t41 -18.5q38 0 68 31t47.5 88.5t17.5 133.5q0 118 -45 207t-130 138t-200 49q-133 0 -237.5 -71.5t-163 -194.5t-58.5 -270q0 -116 42.5 -204t124.5 -136.5t197 -48.5q136 0 258 40 q8 3 14 3q14 0 24 -13.5t19 -46.5q7 -27 7 -44t-6 -26t-18 -14q-53 -23 -133.5 -37.5t-162.5 -14.5q-163 0 -282.5 66.5t-183 188.5t-63.5 287zM496 379q0 -47 18 -72.5t48 -25.5q34 0 68.5 44.5t57 107t22.5 108.5q0 102 -66 102q-31 0 -66 -39.5t-58.5 -101t-23.5 -123.5z " />
<glyph unicode="A" d="M71 70q0 12 6 27l399 1047q14 36 46 50.5t97 14.5t96.5 -15t44.5 -50l386 -1047q5 -11 5 -26q0 -25 -24 -43t-78 -30q-51 -12 -82 -12q-28 0 -44 10t-24 31l-69 193h-438l-71 -193q-8 -21 -24.5 -31t-43.5 -10q-30 0 -81 12q-54 12 -77.5 30t-23.5 42zM471 455h284 l-138 410h-4z" />
<glyph unicode="B" d="M180 63v1061q0 34 14.5 48.5t48.5 14.5h411q209 0 309.5 -85.5t100.5 -237.5q0 -84 -42 -145.5t-120 -97.5q95 -31 149.5 -99.5t54.5 -177.5q0 -170 -109.5 -257t-316.5 -87h-437q-34 0 -48.5 14.5t-14.5 48.5zM430 215h222q194 0 194 139q0 74 -47.5 109.5t-146.5 35.5 h-222v-284zM430 714h202q90 0 134 32t44 98q0 67 -42.5 97.5t-135.5 30.5h-202v-258z" />
<glyph unicode="C" d="M126 594q0 188 68 327t192 213.5t288 74.5q207 0 387 -87q46 -22 46 -74q0 -27 -14 -69q-14 -43 -34.5 -63.5t-43.5 -20.5q-16 0 -30 7q-76 36 -148.5 53t-152.5 17q-142 0 -219 -97t-77 -281t77.5 -281.5t218.5 -97.5q80 0 152.5 17t148.5 53q14 7 30 7q23 0 43.5 -20.5 t34.5 -63.5q14 -42 14 -69q0 -52 -46 -74q-180 -87 -387 -87q-164 0 -288 75t-192 214t-68 327z" />
<glyph unicode="D" d="M160 63v1061q0 34 14.5 48.5t48.5 14.5h351q175 0 300 -69t191.5 -202.5t66.5 -321.5t-66.5 -321.5t-191.5 -203t-300 -69.5h-351q-34 0 -48.5 14.5t-14.5 48.5zM410 235h144q156 0 236 90.5t80 268.5t-80 268t-236 90h-144v-717z" />
<glyph unicode="E" d="M200 63v1061q0 34 14.5 48.5t48.5 14.5h714q24 0 37 -10t19.5 -35.5t6.5 -72.5t-6.5 -72.5t-19.5 -35t-37 -9.5h-527v-223h364q24 0 37 -10t19.5 -35.5t6.5 -72.5t-6.5 -72.5t-19.5 -35t-37 -9.5h-364v-259h547q24 0 37 -10t19.5 -35.5t6.5 -72.5t-6.5 -72.5t-19.5 -35 t-37 -9.5h-734q-34 0 -48.5 14.5t-14.5 48.5z" />
<glyph unicode="F" d="M220 63v1061q0 34 14.5 48.5t48.5 14.5h704q24 0 37 -10t19.5 -35.5t6.5 -72.5t-6.5 -72.5t-19.5 -35t-37 -9.5h-517v-285h434q24 0 37 -10t19.5 -35.5t6.5 -72.5t-6.5 -72.5t-19.5 -35t-37 -9.5h-434v-369q0 -34 -14.5 -48.5t-48.5 -14.5h-124q-34 0 -48.5 14.5 t-14.5 48.5z" />
<glyph unicode="G" d="M86 594q0 188 68 327t192 213.5t288 74.5q104 0 206 -23t191 -64q46 -21 46 -74q0 -27 -14 -69q-14 -43 -34.5 -63.5t-44.5 -20.5q-11 0 -29 7q-158 70 -311 70q-142 0 -219 -97t-77 -281t77.5 -281.5t218.5 -97.5q108 0 204 31v186h-216q-24 0 -37 9.5t-19.5 35 t-6.5 72.5t6.5 72.5t19.5 35.5t37 10h403q34 0 48.5 -14.5t14.5 -48.5v-461q0 -24 -9.5 -42t-26.5 -27q-86 -47 -196.5 -71.5t-231.5 -24.5q-164 0 -288 75t-192 214t-68 327z" />
<glyph unicode="H" d="M140 63v1061q0 34 14.5 48.5t48.5 14.5h124q34 0 48.5 -14.5t14.5 -48.5v-395h448v395q0 34 14.5 48.5t48.5 14.5h124q34 0 48.5 -14.5t14.5 -48.5v-1061q0 -34 -14.5 -48.5t-48.5 -14.5h-124q-34 0 -48.5 14.5t-14.5 48.5v431h-448v-431q0 -34 -14.5 -48.5t-48.5 -14.5 h-124q-34 0 -48.5 14.5t-14.5 48.5z" />
<glyph unicode="I" d="M170 112q0 66 14 89.5t49 23.5h256v737h-236q-35 0 -49 23t-14 89t14 89.5t49 23.5h722q35 0 49 -23.5t14 -89.5t-14 -89t-49 -23h-236v-737h256q35 0 49 -23.5t14 -89.5t-14 -89t-49 -23h-762q-35 0 -49 23t-14 89z" />
<glyph unicode="J" d="M152 148q0 32 22 79q36 77 81 77q17 0 33 -9q72 -38 146 -59t139 -21q77 0 116.5 41t39.5 127v569h-316q-24 0 -37 9.5t-19.5 35t-6.5 72.5t6.5 72.5t19.5 35.5t37 10h503q34 0 48.5 -14.5t14.5 -48.5v-761q0 -192 -103 -288.5t-304 -96.5q-98 0 -198.5 27.5t-183.5 77.5 q-38 24 -38 65z" />
<glyph unicode="K" d="M185 63v1061q0 34 14.5 48.5t48.5 14.5h124q34 0 48.5 -14.5t14.5 -48.5v-416l451 478q21 23 47 23q35 0 103 -43q68 -42 68 -81q0 -21 -21 -44l-357 -373l374 -544q13 -19 13 -35q0 -20 -20.5 -39t-65.5 -40q-69 -32 -101 -32q-31 0 -51 29l-323 479l-117 -122v-301 q0 -34 -14.5 -48.5t-48.5 -14.5h-124q-34 0 -48.5 14.5t-14.5 48.5z" />
<glyph unicode="L" d="M209 63v1061q0 34 14.5 48.5t48.5 14.5h124q34 0 48.5 -14.5t14.5 -48.5v-889h546q24 0 37 -10t19.5 -35.5t6.5 -72.5t-6.5 -72.5t-19.5 -35t-37 -9.5h-733q-34 0 -48.5 14.5t-14.5 48.5z" />
<glyph unicode="M" d="M120 63l20 1061q1 34 15 48.5t48 14.5h114q21 0 33.5 -7t20.5 -24l243 -491l242 491q8 17 20.5 24t33.5 7h115q34 0 48 -14.5t15 -48.5l20 -1061q1 -34 -14 -48.5t-49 -14.5h-107q-34 0 -48.5 14.5t-14.5 48.5l-7 624l-152 -312q-16 -33 -37.5 -46.5t-63.5 -13.5t-64 13 t-39 47l-153 309l-6 -621q0 -34 -14.5 -48.5t-48.5 -14.5h-107q-34 0 -49 14.5t-14 48.5z" />
<glyph unicode="N" d="M140 63v1061q0 34 14.5 48.5t48.5 14.5h134q38 0 54 -24l457 -667h4v628q0 34 14.5 48.5t48.5 14.5h110q34 0 48.5 -14.5t14.5 -48.5v-1080q0 -33 -25 -49.5t-85 -16.5q-44 0 -66.5 13t-42.5 42l-489 714h-4v-684q0 -34 -14.5 -48.5t-48.5 -14.5h-110q-34 0 -48.5 14.5 t-14.5 48.5z" />
<glyph unicode="O" d="M66 594q0 188 68 327t192 213.5t288 74.5t288 -74.5t192 -213.5t68 -327t-68 -327t-192 -214t-288 -75t-288 75t-192 214t-68 327zM328 594q0 -183 73 -281t213 -98t213 98t73 281t-73 280.5t-213 97.5t-213 -97.5t-73 -280.5z" />
<glyph unicode="P" d="M200 63v1061q0 34 14.5 48.5t48.5 14.5h377q152 0 257 -51.5t157.5 -146t52.5 -224.5t-52.5 -225t-157.5 -146.5t-257 -51.5h-190v-279q0 -34 -14.5 -48.5t-48.5 -14.5h-124q-34 0 -48.5 14.5t-14.5 48.5zM450 577h159q119 0 179.5 46t60.5 142t-60.5 141.5t-179.5 45.5 h-159v-375z" />
<glyph unicode="Q" d="M66 594q0 188 68 327t192 213.5t288 74.5t288 -74.5t192 -213.5t68 -327q0 -155 -47 -278t-134 -203l80 -115q12 -17 12 -33q0 -19 -18 -39.5t-59 -49.5q-63 -44 -94 -44q-13 0 -22.5 6t-19.5 19l-96 139q-70 -18 -150 -18q-164 0 -288 75t-192 214t-68 327zM328 594 q0 -183 73 -281t213 -98q14 0 21 1l-91 130q-13 17 -13 35t16 37t53 44q56 40 86 40q24 0 43 -27l105 -151q66 96 66 270q0 183 -73 280.5t-213 97.5t-213 -97.5t-73 -280.5z" />
<glyph unicode="R" d="M190 63v1061q0 34 15 48.5t48 14.5h387q139 0 237 -46.5t149 -135t51 -211.5q0 -127 -54 -217t-157 -134l196 -315q12 -18 12 -36q0 -21 -20.5 -40t-65.5 -38q-66 -27 -99 -27q-34 0 -53 31l-233 383h-163v-338q0 -34 -14.5 -48.5t-48.5 -14.5h-124q-34 0 -48.5 14.5 t-14.5 48.5zM440 636h179q103 0 151.5 38t48.5 120t-48.5 120t-151.5 38h-179v-316z" />
<glyph unicode="S" d="M149 139q0 30 13 69q14 43 34.5 63.5t43.5 20.5q16 0 30 -7q71 -34 163 -52t178 -18q103 0 157 34.5t54 97.5q0 39 -20 63.5t-59 40.5q-31 13 -70 20.5t-107 17.5q-93 14 -150.5 26.5t-108.5 37.5q-75 37 -116.5 102.5t-41.5 172.5q0 116 54.5 202t155 132.5t235.5 46.5 q105 0 207.5 -19t192.5 -55q52 -20 52 -81q0 -24 -9 -59q-12 -46 -32 -68t-45 -22q-12 0 -25 5q-78 29 -169 45.5t-172 16.5q-87 0 -134.5 -34.5t-47.5 -94.5q0 -56 69 -80q28 -9 64.5 -15.5t92.5 -12.5q100 -13 166.5 -27t124.5 -45q74 -41 116 -113.5t42 -187.5 q0 -118 -54.5 -204.5t-159 -133t-252.5 -46.5q-109 0 -226 23t-201 64q-45 22 -45 74z" />
<glyph unicode="T" d="M100 1069q0 47 6.5 72.5t19.5 35.5t37 10h902q24 0 37 -10t19.5 -35.5t6.5 -72.5t-6.5 -72.5t-19.5 -35t-37 -9.5h-326v-889q0 -34 -14.5 -48.5t-48.5 -14.5h-124q-34 0 -48.5 14.5t-14.5 48.5v889h-326q-24 0 -37 9.5t-19.5 35t-6.5 72.5z" />
<glyph unicode="U" d="M140 433v691q0 34 14.5 48.5t48.5 14.5h124q34 0 48.5 -14.5t14.5 -48.5v-671q0 -119 61 -178.5t163 -59.5t163 59.5t61 178.5v671q0 34 14.5 48.5t48.5 14.5h124q34 0 48.5 -14.5t14.5 -48.5v-691q0 -143 -57.5 -245.5t-164.5 -156t-252 -53.5t-252 53.5t-164.5 156 t-57.5 245.5z" />
<glyph unicode="V" d="M78 1116q0 24 24.5 42t79.5 31q51 12 82 12q29 0 45.5 -10t24.5 -31l278 -766l288 766q8 21 24.5 31t44.5 10q31 0 82 -12q54 -12 78.5 -30t24.5 -42q0 -12 -6 -27l-407 -1047q-14 -36 -43 -50.5t-90 -14.5t-89.5 15t-41.5 50l-394 1047q-5 15 -5 26z" />
<glyph unicode="W" d="M55 1129q-1 5 -1 9q0 27 22 42q26 17 91 17q68 0 99.5 -13.5t34.5 -45.5l67 -672l151 365q10 22 30 33t67 11t67 -11t30 -33l151 -365l68 672q3 32 32 45.5t96 13.5q64 -1 88 -17q21 -14 22 -42q0 -5 -1 -9l-117 -1074q-3 -26 -13.5 -39.5t-36 -19.5t-73.5 -6 q-68 0 -97.5 15t-43.5 50l-176 422l-176 -422q-14 -35 -43.5 -50t-97.5 -15q-48 0 -73.5 6t-36 19.5t-13.5 39.5z" />
<glyph unicode="X" d="M112 93q0 17 12 35l322 475l-309 456q-13 20 -13 35q0 43 87 79q64 27 100 27q38 0 57 -31l248 -377l248 377q19 31 56 31q35 0 99 -27q45 -19 65 -38t20 -40q0 -16 -13 -36l-310 -454l323 -477q12 -16 12 -34q0 -43 -90 -80q-64 -27 -100 -27q-19 0 -32.5 7.5 t-24.5 23.5l-259 387l-255 -387q-19 -31 -56 -31q-34 0 -99 27q-88 36 -88 79z" />
<glyph unicode="Y" d="M98 1095q0 21 20.5 40t65.5 38q66 27 99 27q34 0 53 -31l280 -461l280 461q10 16 22 23.5t30 7.5q32 0 98 -27q84 -36 84 -77q0 -17 -12 -37l-379 -607v-389q0 -34 -14.5 -48.5t-48.5 -14.5h-124q-34 0 -48.5 14.5t-14.5 48.5v389l-379 607q-12 18 -12 36z" />
<glyph unicode="Z" d="M138 102q0 66 20 93l549 757h-486q-24 0 -37 9.5t-19.5 35t-6.5 72.5t6.5 72.5t19.5 35.5t37 10h786q24 0 37 -8.5t19.5 -30.5t6.5 -64q0 -61 -23 -92l-549 -757h529q24 0 37 -10t19.5 -35.5t6.5 -72.5t-6.5 -72.5t-19.5 -35t-37 -9.5h-826q-24 0 -37 8t-19.5 30t-6.5 64 z" />
<glyph unicode="[" d="M290 -270v1579q0 34 14.5 48.5t48.5 14.5h510q35 0 49 -23.5t14 -89.5t-14 -89t-49 -23h-323v-1255h323q35 0 49 -23.5t14 -89.5t-14 -89t-49 -23h-510q-34 0 -48.5 14.5t-14.5 48.5z" />
<glyph unicode="\" d="M159 1321q0 34 45.5 56t112.5 22q64 0 82 -43l666 -1618q4 -9 4 -20q0 -34 -45.5 -56t-112.5 -22q-64 0 -82 43l-666 1618q-4 9 -4 20z" />
<glyph unicode="]" d="M302 -221q0 66 14 89.5t49 23.5h323v1255h-323q-35 0 -49 23t-14 89t14 89.5t49 23.5h510q34 0 48.5 -14.5t14.5 -48.5v-1579q0 -34 -14.5 -48.5t-48.5 -14.5h-510q-35 0 -49 23t-14 89z" />
<glyph unicode="^" d="M193 544q0 8 5 18l318 610q9 19 32 28t66 9q42 0 65.5 -9t32.5 -28l318 -610q5 -10 5 -18q0 -23 -27 -40.5t-68 -27.5q-34 -8 -62 -8q-29 0 -49.5 7.5t-27.5 21.5l-187 390l-187 -390q-7 -14 -27.5 -21.5t-49.5 -7.5q-28 0 -62 8q-41 10 -68 27.5t-27 40.5z" />
<glyph unicode="_" d="M-38 -401q0 48 3 72t10 32.5t20 8.5h1238q13 0 20 -8.5t10 -32.5t3 -72t-3 -71.5t-10 -32t-20 -8.5h-1238q-13 0 -20 8.5t-10 32t-3 71.5z" />
<glyph unicode="`" d="M276 1276q0 39 40 93q57 75 103 75q17 0 33 -11l347 -255q21 -15 21 -43t-22 -63q-32 -51 -68 -51q-12 0 -23 6l-407 205q-24 12 -24 44z" />
<glyph unicode="a" d="M140 295q0 140 97.5 217t272.5 77q133 0 283 -30v29q0 67 -42 99t-148 32q-59 0 -131.5 -14.5t-143.5 -38.5q-17 -5 -29 -5q-25 0 -44.5 18.5t-35.5 62.5q-15 43 -15 72q0 51 46 68q89 32 189 48t188 16q220 0 318 -95t98 -272v-516q0 -34 -14.5 -48.5t-48.5 -14.5h-94 q-34 0 -48.5 14.5t-14.5 48.5v26q-156 -111 -325 -111q-112 0 -192.5 38.5t-123 110t-42.5 168.5zM392 285q0 -47 35.5 -71.5t102.5 -24.5q69 0 136.5 27.5t126.5 75.5v64q-132 27 -258 27q-70 0 -106.5 -25t-36.5 -73z" />
<glyph unicode="b" d="M167 63v1186q0 34 14.5 48.5t48.5 14.5h124q34 0 48.5 -14.5t14.5 -48.5v-421q51 57 118 87.5t145 30.5q131 0 227 -64t147 -174t51 -246t-51 -246t-147 -174t-227 -64q-92 0 -167.5 42t-125.5 117v-74q0 -34 -14.5 -48.5t-48.5 -14.5h-94q-34 0 -48.5 14.5t-14.5 48.5z M410 462q0 -79 31 -136t83 -86.5t116 -29.5q94 0 148.5 68t54.5 184t-54.5 184t-148.5 68q-64 0 -116 -29.5t-83 -86.5t-31 -136z" />
<glyph unicode="c" d="M137 462q0 139 65 249t182.5 172.5t269.5 62.5q87 0 183 -26t185 -71q45 -23 45 -71q0 -29 -16 -70q-31 -81 -78 -81q-15 0 -32 9q-151 78 -287 78q-74 0 -131.5 -30.5t-89.5 -87.5t-32 -134t32 -134t89.5 -87.5t131.5 -30.5q145 0 304 89q18 10 33 10q45 0 79 -79 q18 -43 18 -73q0 -45 -43 -69q-205 -110 -391 -110q-152 0 -269.5 62.5t-182.5 172.5t-65 249z" />
<glyph unicode="d" d="M123 462q0 136 51 246t147 174t227 64q78 0 145 -30.5t118 -87.5v421q0 34 14.5 48.5t48.5 14.5h124q34 0 48.5 -14.5t14.5 -48.5v-1186q0 -34 -14.5 -48.5t-48.5 -14.5h-94q-34 0 -48.5 14.5t-14.5 48.5v74q-50 -75 -125.5 -117t-167.5 -42q-131 0 -227 64t-147 174 t-51 246zM385 462q0 -116 54.5 -184t148.5 -68q64 0 116 29.5t83 86.5t31 136t-31 136t-83 86.5t-116 29.5q-94 0 -148.5 -68t-54.5 -184z" />
<glyph unicode="e" d="M134 462q0 140 59.5 250t171.5 172t263 62q152 0 258 -65.5t160 -181.5t54 -267q0 -34 -14.5 -48t-48.5 -14h-642q19 -81 77 -123t146 -42q175 0 356 55q12 4 24 4q22 0 38 -20t29 -68q10 -37 10 -63t-11.5 -40.5t-37.5 -23.5q-102 -34 -212.5 -52.5t-215.5 -18.5 q-146 0 -250.5 62t-159 171.5t-54.5 250.5zM399 565h446q-17 72 -74 113t-143 41q-91 0 -149 -38.5t-80 -115.5z" />
<glyph unicode="f" d="M167 751q0 66 14 89.5t49 23.5h183v73q0 186 91.5 283t265.5 97q152 0 304 -57q25 -9 37 -26t12 -46q0 -28 -10 -64q-13 -46 -31.5 -66.5t-42.5 -20.5q-13 0 -25 4q-127 39 -222 39q-63 0 -96 -37.5t-33 -118.5v-60h311q35 0 49 -23.5t14 -89.5t-14 -89t-49 -23h-311 v-576q0 -34 -14.5 -48.5t-48.5 -14.5h-124q-34 0 -48.5 14.5t-14.5 48.5v576h-183q-35 0 -49 23t-14 89z" />
<glyph unicode="g" d="M123 477q0 135 52 241.5t148.5 167t224.5 60.5q92 0 167 -37.5t126 -107.5v60q0 34 14.5 48.5t48.5 14.5h94q34 0 48.5 -14.5t14.5 -48.5v-860q0 -196 -117.5 -303.5t-351.5 -107.5q-86 0 -188 16.5t-195 45.5q-48 15 -48 69q0 24 13 70q15 47 33.5 68t43.5 21 q13 0 24 -4q191 -59 307 -59q121 0 175 50.5t54 153.5v102q-51 -51 -118 -78t-145 -27q-128 0 -224.5 59t-148.5 163.5t-52 236.5zM385 477q0 -113 55 -175t148 -62q64 0 116.5 26.5t83 80t30.5 130.5t-30.5 130.5t-83 80t-116.5 26.5q-93 0 -148 -62t-55 -175z" />
<glyph unicode="h" d="M170 63v1186q0 34 14.5 48.5t48.5 14.5h124q34 0 48.5 -14.5t14.5 -48.5v-471q68 80 152 124t178 44q98 0 171 -42t112 -118t39 -176v-547q0 -34 -14.5 -48.5t-48.5 -14.5h-124q-34 0 -48.5 14.5t-14.5 48.5v488q0 158 -137 158q-64 0 -125.5 -49t-100.5 -130t-39 -172 v-295q0 -34 -14.5 -48.5t-48.5 -14.5h-124q-34 0 -48.5 14.5t-14.5 48.5z" />
<glyph unicode="i" d="M167 112q0 66 14 89.5t49 23.5h273v474h-213q-35 0 -49 23t-14 89t14 89.5t49 23.5h400q34 0 48.5 -14.5t14.5 -48.5v-636h281q35 0 49 -23.5t14 -89.5t-14 -89t-49 -23h-804q-35 0 -49 23t-14 89zM503 1136v164q0 35 26 49t96 14q71 0 99.5 -14.5t28.5 -48.5v-164 q0 -34 -26.5 -48.5t-96.5 -14.5t-98.5 14.5t-28.5 48.5z" />
<glyph unicode="j" d="M166 -252q0 27 17 73q32 83 80 83q13 0 30 -7q159 -70 251 -70q63 0 96 37.5t33 118.5v716h-383q-35 0 -49 23t-14 89t14 89.5t49 23.5h570q34 0 48.5 -14.5t14.5 -48.5v-891q0 -186 -91.5 -283t-265.5 -97q-82 0 -176 24t-181 68q-22 11 -32.5 26.5t-10.5 39.5z M673 1136v164q0 35 26 49t96 14q71 0 99.5 -14.5t28.5 -48.5v-164q0 -34 -26.5 -48.5t-96.5 -14.5t-98.5 14.5t-28.5 48.5z" />
<glyph unicode="k" d="M203 63v1186q0 34 14.5 48.5t48.5 14.5h124q34 0 48.5 -14.5t14.5 -48.5v-668l399 335q23 20 51 20q40 0 98 -47q72 -60 72 -97q0 -21 -24 -41l-278 -224l298 -365q21 -27 21 -50q0 -42 -75 -88q-63 -39 -100 -39q-33 0 -54 29l-287 355l-121 -98v-208q0 -34 -14.5 -48.5 t-48.5 -14.5h-124q-34 0 -48.5 14.5t-14.5 48.5z" />
<glyph unicode="l" d="M157 112q0 66 14 89.5t49 23.5h273v862h-233q-35 0 -49 23t-14 89t14 89.5t49 23.5h420q34 0 48.5 -14.5t14.5 -48.5v-1024h281q35 0 49 -23.5t14 -89.5t-14 -89t-49 -23h-804q-35 0 -49 23t-14 89z" />
<glyph unicode="m" d="M88 63v798q0 34 14.5 48.5t48.5 14.5h74q34 0 48.5 -14.5t14.5 -48.5v-124q43 102 102.5 155.5t127.5 53.5q148 0 191 -203q46 100 107 151.5t132 51.5q92 0 145 -75t53 -228v-580q0 -34 -14.5 -48.5t-48.5 -14.5h-124q-34 0 -48.5 14.5t-14.5 48.5v523q0 53 -12.5 78 t-39.5 25q-47 0 -74.5 -73t-27.5 -213v-340q0 -34 -14.5 -48.5t-48.5 -14.5h-124q-34 0 -48.5 14.5t-14.5 48.5v523q0 53 -12.5 78t-39.5 25q-47 0 -74.5 -73t-27.5 -213v-340q0 -34 -14.5 -48.5t-48.5 -14.5h-124q-34 0 -48.5 14.5t-14.5 48.5z" />
<glyph unicode="n" d="M170 63v798q0 34 14.5 48.5t48.5 14.5h94q34 0 48.5 -14.5t14.5 -48.5v-125q70 99 162 154.5t198 55.5q98 0 171 -42t112 -118t39 -176v-547q0 -34 -14.5 -48.5t-48.5 -14.5h-124q-34 0 -48.5 14.5t-14.5 48.5v488q0 158 -137 158q-64 0 -125.5 -49t-100.5 -130t-39 -172 v-295q0 -34 -14.5 -48.5t-48.5 -14.5h-124q-34 0 -48.5 14.5t-14.5 48.5z" />
<glyph unicode="o" d="M113 462q0 140 61.5 250t175 172t264.5 62t264.5 -62t175 -172t61.5 -250t-61.5 -250t-175 -172t-264.5 -62t-264.5 62t-175 172t-61.5 250zM375 462q0 -76 29.5 -133t83.5 -88t126 -31t126 31t83.5 88t29.5 133t-29.5 133t-83.5 88t-126 31t-126 -31t-83.5 -88 t-29.5 -133z" />
<glyph unicode="p" d="M167 -325v1186q0 34 14.5 48.5t48.5 14.5h94q34 0 48.5 -14.5t14.5 -48.5v-74q50 75 125.5 117t167.5 42q131 0 227 -64t147 -174t51 -246t-51 -246t-147 -174t-227 -64q-78 0 -145 30.5t-118 87.5v-421q0 -34 -14.5 -48.5t-48.5 -14.5h-124q-34 0 -48.5 14.5t-14.5 48.5 zM410 462q0 -79 31 -136t83 -86.5t116 -29.5q94 0 148.5 68t54.5 184t-54.5 184t-148.5 68q-64 0 -116 -29.5t-83 -86.5t-31 -136z" />
<glyph unicode="q" d="M123 462q0 136 51 246t147 174t227 64q92 0 167.5 -42t125.5 -117v74q0 34 14.5 48.5t48.5 14.5h94q34 0 48.5 -14.5t14.5 -48.5v-1186q0 -34 -14.5 -48.5t-48.5 -14.5h-124q-34 0 -48.5 14.5t-14.5 48.5v421q-51 -57 -118 -87.5t-145 -30.5q-131 0 -227 64t-147 174 t-51 246zM385 462q0 -116 54.5 -184t148.5 -68q64 0 116 29.5t83 86.5t31 136t-31 136t-83 86.5t-116 29.5q-94 0 -148.5 -68t-54.5 -184z" />
<glyph unicode="r" d="M257 63v798q0 34 14.5 48.5t48.5 14.5h104q34 0 48.5 -14.5t14.5 -48.5v-171q69 120 172.5 188t220.5 68q75 0 150 -30q54 -21 54 -87q0 -25 -8 -62q-25 -108 -82 -108q-10 0 -19 3q-54 16 -108 16q-98 0 -180.5 -50t-131 -138.5t-48.5 -199.5v-227q0 -34 -14.5 -48.5 t-48.5 -14.5h-124q-34 0 -48.5 14.5t-14.5 48.5z" />
<glyph unicode="s" d="M164 645q0 93 48.5 161t137 104t206.5 36q104 0 215.5 -18.5t214.5 -53.5q51 -18 51 -72q0 -22 -9 -54q-24 -84 -75 -84q-10 0 -25 5q-182 65 -350 65q-81 0 -118.5 -21.5t-37.5 -63.5q0 -21 18 -33.5t53 -19.5q44 -9 130 -14q93 -7 157 -16.5t120 -30.5 q80 -29 125.5 -86t45.5 -152q0 -96 -47.5 -167.5t-142.5 -111.5t-235 -40q-104 0 -215.5 18.5t-214.5 53.5q-51 18 -51 72q0 23 9 54q24 84 75 84q10 0 25 -5q182 -65 350 -65q101 0 144.5 22t43.5 64q0 23 -22.5 36.5t-65.5 21.5q-35 7 -115 14q-104 9 -177 22.5t-133 44.5 q-135 70 -135 230z" />
<glyph unicode="t" d="M97 751q0 66 14 89.5t49 23.5h193v282q0 34 30.5 48.5t101.5 14.5q47 0 72.5 -6.5t35.5 -19.5t10 -37v-282h371q35 0 49 -23.5t14 -89.5t-14 -89t-49 -23h-371v-263q0 -161 129 -161q86 0 251 73q18 8 32 8q45 0 76 -79q18 -45 18 -75q0 -23 -10.5 -38.5t-31.5 -26.5 q-196 -99 -357 -99q-174 0 -265.5 97t-91.5 283v281h-193q-35 0 -49 23t-14 89z" />
<glyph unicode="u" d="M156 314v547q0 34 14.5 48.5t48.5 14.5h124q34 0 48.5 -14.5t14.5 -48.5v-488q0 -158 137 -158q64 0 125.5 49t100.5 130t39 172v295q0 34 14.5 48.5t48.5 14.5h124q34 0 48.5 -14.5t14.5 -48.5v-798q0 -34 -14.5 -48.5t-48.5 -14.5h-94q-34 0 -48.5 14.5t-14.5 48.5v125 q-70 -99 -162 -154.5t-198 -55.5q-98 0 -171 42t-112 118t-39 176z" />
<glyph unicode="v" d="M108 854q0 48 105 72q51 12 82 12q28 0 45 -10t26 -31l251 -599l250 599q8 21 24.5 31t44.5 10q30 0 81 -12q104 -24 104 -71q0 -10 -7 -28l-350 -784q-15 -35 -49 -50t-104 -15t-103 15t-48 50l-346 784q-6 14 -6 27z" />
<glyph unicode="w" d="M48 866q0 27 23.5 42t79.5 22q38 4 51 4q38 0 57.5 -12t23.5 -39l87 -510l145 337q12 29 33.5 43t62.5 14q43 0 64.5 -12t32.5 -38l143 -344l94 510q5 27 23 39t55 12q13 0 51 -4q55 -7 78 -21.5t23 -41.5q0 -6 -2 -18l-158 -806q-7 -36 -33.5 -50.5t-87.5 -14.5 q-60 0 -91.5 15.5t-45.5 49.5l-146 352l-150 -352q-15 -34 -47 -49.5t-92 -15.5t-86 14.5t-33 50.5l-153 806q-2 12 -2 17z" />
<glyph unicode="x" d="M142 113q0 23 23 49l274 306l-264 294q-23 26 -23 49q0 21 19 42.5t58 46.5q61 38 98 38q31 0 56 -28l231 -271l231 271q25 28 56 28q37 0 98 -38q39 -25 58 -46.5t19 -42.5q0 -23 -23 -49l-264 -294l274 -306q23 -26 23 -49q0 -21 -19 -42.5t-58 -46.5q-61 -38 -98 -38 q-31 0 -56 28l-241 283l-241 -283q-25 -28 -56 -28q-37 0 -98 38q-39 25 -58 46.5t-19 42.5z" />
<glyph unicode="y" d="M108 854q0 48 105 72q51 12 82 12q28 0 45 -10t26 -31l251 -599l250 599q8 21 24.5 31t44.5 10q30 0 81 -12q104 -24 104 -71q0 -10 -7 -28l-537 -1193q-18 -39 -65 -39q-31 0 -90 17q-53 16 -77.5 34t-24.5 41q0 12 8 28l149 291l-363 821q-6 14 -6 27z" />
<glyph unicode="z" d="M138 102q0 27 7 45t25 37l503 515h-462q-35 0 -49 23t-14 89t14 89.5t49 23.5h806q24 0 37 -8t19.5 -30t6.5 -64q0 -27 -7 -45t-25 -37l-503 -515h482q35 0 49 -23t14 -89t-14 -89.5t-49 -23.5h-826q-24 0 -37 8t-19.5 30t-6.5 64z" />
<glyph unicode="{" d="M165 542q0 44 6.5 66.5t19.5 31t37 8.5q112 0 169.5 46t57.5 131q0 16 -1 25l-10 109q-3 30 -3 58q0 181 121 268t373 87q35 0 49 -21.5t14 -83.5q0 -46 -6 -69t-19.5 -31t-37.5 -8q-92 0 -144 -19t-74.5 -58.5t-22.5 -106.5q0 -18 1 -28l5 -97l1 -26q0 -105 -54 -173.5 t-177 -103.5v-10q123 -34 178.5 -103t55.5 -171q0 -20 -1 -30l-9 -131q-1 -12 -1 -36q0 -67 23 -107t76 -59.5t143 -19.5q24 0 37.5 -7.5t19.5 -30.5t6 -69q0 -62 -14 -84t-49 -22q-251 0 -372 88.5t-121 274.5q0 29 3 60l13 143q1 8 1 24q0 85 -59.5 131.5t-171.5 46.5 q-24 0 -37 8.5t-19.5 31.5t-6.5 67z" />
<glyph unicode="|" d="M489 -292v1623q0 33 33 48t99 15q64 0 91 -14.5t27 -48.5v-1623q0 -33 -33 -48t-99 -15q-64 0 -91 14.5t-27 48.5z" />
<glyph unicode="}" d="M230 -227q0 46 6 69t19.5 30.5t37.5 7.5q90 0 143 19.5t76 59.5t23 107q0 24 -1 36l-9 131q-1 10 -1 30q0 102 55.5 171t178.5 103v10q-123 35 -177 103.5t-54 173.5l1 26l5 97q1 10 1 28q0 67 -22.5 106.5t-74.5 58.5t-144 19q-24 0 -37.5 8t-19.5 31t-6 69 q0 62 14 83.5t49 21.5q252 0 373 -87t121 -268q0 -28 -3 -58l-10 -109q-1 -9 -1 -25q0 -85 57.5 -131t169.5 -46q24 0 37 -8.5t19.5 -31t6.5 -66.5t-6.5 -67t-19.5 -31.5t-37 -8.5q-112 0 -171.5 -46.5t-59.5 -131.5q0 -16 1 -24l13 -143q3 -31 3 -60q0 -186 -121 -274.5 t-372 -88.5q-35 0 -49 22t-14 84z" />
<glyph unicode="~" d="M129 552q0 17 13 38q59 87 128.5 131t159.5 44q53 0 100 -17.5t113 -51.5q53 -28 90 -42.5t73 -14.5q39 0 69.5 16t62.5 50q18 19 40 19q33 0 74 -37q47 -41 47 -78q0 -17 -13 -38q-59 -87 -128.5 -131t-159.5 -44q-54 0 -102.5 18t-112.5 52q-54 28 -90 42t-71 14 q-39 0 -69.5 -16t-62.5 -50q-18 -19 -40 -19q-33 0 -74 37q-47 41 -47 78z" />
<glyph unicode="&#xa0;" />
<glyph unicode="&#xa1;" d="M458 -295l57 657q5 58 99 58t99 -58l57 -657q2 -26 -8 -38t-33 -12h-230q-23 0 -33 12t-8 38zM459 657v214q0 34 36.5 48.5t118.5 14.5t118.5 -14.5t36.5 -48.5v-214q0 -34 -36.5 -48.5t-118.5 -14.5t-118.5 14.5t-36.5 48.5z" />
<glyph unicode="&#xa2;" d="M137 602q0 123 51.5 224.5t146 167.5t220.5 85v170q0 35 19 49t74 14t74 -14t19 -49v-169q141 -20 281 -91q45 -23 45 -71q0 -29 -16 -70q-31 -81 -78 -81q-15 0 -32 9q-106 55 -200 70v-488q105 19 217 81q18 10 33 10q45 0 79 -79q18 -43 18 -73q0 -45 -43 -69 q-156 -85 -304 -104v-186q0 -35 -19 -49t-74 -14t-74 14t-19 49v187q-126 19 -220.5 85t-146 167.5t-51.5 224.5zM401 602q0 -87 41 -148.5t113 -87.5v472q-72 -26 -113 -87.5t-41 -148.5z" />
<glyph unicode="&#xa3;" d="M190 577q0 47 6.5 71t19.5 33t37 9h69q-15 43 -23 83t-8 84q0 101 45 181t130.5 125.5t203.5 45.5q78 0 152 -16t134 -45q38 -19 38 -62q0 -31 -17 -72q-32 -82 -73 -82q-11 0 -20 4q-108 46 -206 46q-62 0 -97.5 -36.5t-35.5 -97.5q0 -42 9.5 -75.5t29.5 -82.5h281 q24 0 37 -9t19.5 -33t6.5 -71t-6.5 -71t-19.5 -32.5t-37 -8.5h-228q-1 -66 -27 -124.5t-75 -115.5h420q24 0 37 -9t19.5 -33t6.5 -71t-6.5 -71t-19.5 -32.5t-37 -8.5h-654q-15 0 -30.5 21.5t-26 54.5t-10.5 65q0 22 6.5 36.5t20.5 26.5q65 57 95 112t30 129q0 13 -1 20h-132 q-24 0 -37 8.5t-19.5 32.5t-6.5 71z" />
<glyph unicode="&#xa4;" d="M102 232q0 18 21 39l131 131q-50 91 -50 200q0 110 50 202l-130 130q-21 21 -21 39q0 15 13 35t43 49q30 30 50 43.5t35 13.5q18 0 39 -21l133 -133q89 46 198 46t198 -46l133 133q21 21 39 21q15 0 35 -13.5t50 -43.5q30 -29 43 -49t13 -35q0 -18 -21 -39l-131 -130 q51 -90 51 -202q0 -109 -50 -200l131 -131q21 -21 21 -39q0 -15 -13.5 -35t-43.5 -50q-29 -30 -49 -43t-35 -13q-18 0 -39 21l-133 133q-91 -47 -199 -47t-199 47l-133 -133q-21 -21 -39 -21q-15 0 -35 13t-49 43q-30 30 -43.5 50t-13.5 35zM426 602q0 -54 23.5 -97 t66.5 -67t98 -24t98 24t66.5 67t23.5 97t-23.5 97t-66.5 67t-98 24t-98 -24t-66.5 -67t-23.5 -97z" />
<glyph unicode="&#xa5;" d="M120 737q0 47 6.5 71t19.5 33t37 9h87l-130 209q-12 18 -12 36q0 21 20.5 40t65.5 38q66 27 99 27q34 0 53 -31l250 -412l250 412q10 16 22 23.5t30 7.5q32 0 98 -27q84 -36 84 -77q0 -17 -12 -37l-130 -209h87q24 0 37 -9t19.5 -33t6.5 -71t-6.5 -71t-19.5 -32.5 t-37 -8.5h-228l-78 -125v-8h286q24 0 37 -9t19.5 -33t6.5 -71t-6.5 -71t-19.5 -32.5t-37 -8.5h-286v-204q0 -34 -14.5 -48.5t-48.5 -14.5h-124q-34 0 -48.5 14.5t-14.5 48.5v204h-286q-24 0 -37 8.5t-19.5 32.5t-6.5 71t6.5 71t19.5 33t37 9h286v8l-78 125h-228 q-24 0 -37 8.5t-19.5 32.5t-6.5 71z" />
<glyph unicode="&#xa6;" d="M489 -292v623q0 33 33 48t99 15q64 0 91 -14.5t27 -48.5v-623q0 -33 -33 -48t-99 -15q-64 0 -91 14.5t-27 48.5zM489 708v623q0 33 33 48t99 15q64 0 91 -14.5t27 -48.5v-623q0 -33 -33 -48t-99 -15q-64 0 -91 14.5t-27 48.5z" />
<glyph unicode="&#xa7;" d="M173 558q0 152 121 247q-16 44 -16 102q0 83 34 146t101 98.5t162 35.5h350q35 0 49 -21.5t14 -81.5t-14 -81t-49 -21h-314q-84 0 -84 -68q0 -27 23.5 -49t71.5 -46l241 -121q95 -48 143.5 -121.5t48.5 -177.5q0 -152 -121 -247q16 -44 16 -102q0 -83 -34 -146 t-101 -98.5t-162 -35.5h-350q-35 0 -49 21.5t-14 81.5t14 81t49 21h314q84 0 84 68q0 27 -23.5 49t-71.5 46l-241 121q-95 48 -143.5 121.5t-48.5 177.5zM415 575q0 -45 24 -73.5t78 -54.5l245 -122q8 -4 14 -7.5t11 -5.5q26 29 26 70q0 45 -24 73.5t-78 54.5l-245 122 q-8 4 -14 7.5t-11 5.5q-26 -29 -26 -70z" />
<glyph unicode="&#xa8;" d="M269 1136v164q0 35 26 49t96 14q71 0 99.5 -14.5t28.5 -48.5v-164q0 -34 -26.5 -48.5t-96.5 -14.5t-98.5 14.5t-28.5 48.5zM709 1136v164q0 35 26 49t96 14q71 0 99.5 -14.5t28.5 -48.5v-164q0 -34 -26.5 -48.5t-96.5 -14.5t-98.5 14.5t-28.5 48.5z" />
<glyph unicode="&#xa9;" d="M28 594q0 173 75.5 313.5t209 221t300.5 80.5t300.5 -80.5t209 -221t75.5 -313.5t-75.5 -314t-209 -221.5t-300.5 -80.5t-300.5 80.5t-209 221.5t-75.5 314zM181 594q0 -131 53.5 -236.5t151.5 -166t227 -60.5t227 60.5t151.5 166t53.5 236.5t-53.5 236.5t-151.5 165.5 t-227 60t-227 -60t-151.5 -165.5t-53.5 -236.5zM307 593q0 106 42.5 183.5t118 119t171.5 41.5q47 0 95.5 -11t90.5 -32q18 -9 26.5 -21t8.5 -29q0 -21 -12 -53q-12 -31 -23.5 -45t-28.5 -14q-10 0 -19 4q-80 28 -138 28q-71 0 -112.5 -45t-41.5 -126t41.5 -126t112.5 -45 q58 0 138 28q9 4 19 4q17 0 28.5 -14t23.5 -45t12 -53q0 -17 -8.5 -29t-26.5 -21q-42 -21 -90.5 -32t-95.5 -11q-96 0 -171.5 41.5t-118 119t-42.5 183.5z" />
<glyph unicode="&#xaa;" d="M247 709q0 107 75.5 166.5t211.5 59.5q99 0 217 -23v22q0 50 -34 75.5t-115 25.5q-83 0 -208 -41q-11 -4 -22 -4q-21 0 -36 17t-27 53q-10 28 -10 47q0 36 35 49q70 26 147.5 39.5t142.5 13.5q169 0 244.5 -73t75.5 -209v-396q0 -26 -11.5 -37.5t-37.5 -11.5h-74 q-26 0 -37.5 11.5t-11.5 37.5v25q-119 -91 -248 -91q-131 0 -204 65.5t-73 178.5zM443 701q0 -36 27.5 -55t78.5 -19q53 0 105 21.5t97 57.5v50q-101 20 -198 20q-54 0 -82 -19.5t-28 -55.5z" />
<glyph unicode="&#xab;" d="M94 536q0 15 9 25l279 366q15 19 40 19q35 0 92 -39q64 -43 64 -85q0 -20 -13 -36l-199 -250l199 -251q13 -16 13 -36q0 -42 -64 -85q-57 -39 -92 -39q-25 0 -40 19l-279 366q-9 12 -9 26zM614 536q0 15 9 25l279 366q15 19 40 19q35 0 92 -39q64 -43 64 -85 q0 -20 -13 -36l-199 -250l199 -251q13 -16 13 -36q0 -42 -64 -85q-57 -39 -92 -39q-25 0 -40 19l-279 366q-9 12 -9 26z" />
<glyph unicode="&#xac;" d="M120 732q0 47 6.5 71t19.5 33t37 9h850q35 0 50 -15t15 -50v-472q0 -34 -30.5 -48.5t-101.5 -14.5q-47 0 -72.5 6.5t-35.5 19.5t-10 37v312h-665q-24 0 -37 8.5t-19.5 32.5t-6.5 71z" />
<glyph unicode="&#xad;" horiz-adv-x="0" />
<glyph unicode="&#xae;" d="M125 822q0 144 63 261t174.5 184t250.5 67t250.5 -67t174.5 -184t63 -261t-63 -261.5t-174.5 -185t-250.5 -67.5t-250.5 67.5t-174.5 185t-63 261.5zM253 822q0 -110 44.5 -198t126.5 -138t189 -50t189 50t126.5 138t44.5 198q0 109 -44.5 196.5t-126.5 137.5t-189 50 t-189 -50t-126.5 -137.5t-44.5 -196.5zM407 606v432q0 29 12.5 41t40.5 12h196q60 0 106 -27.5t71 -74t25 -100.5q0 -56 -26 -98.5t-75 -65.5l64 -73q17 -20 17 -36q0 -22 -37 -48q-34 -23 -53 -23q-20 0 -38 23l-99 128h-62v-90q0 -31 -14 -42.5t-57 -11.5t-57 11.5 t-14 42.5zM549 825h82q37 0 58 17t21 47q0 29 -19 46.5t-52 17.5h-90v-128z" />
<glyph unicode="&#xaf;" d="M280 1172q0 42 6.5 64t19.5 30.5t37 8.5h542q24 0 37 -8.5t19.5 -30.5t6.5 -64t-6.5 -64t-19.5 -30t-37 -8h-542q-24 0 -37 8t-19.5 30t-6.5 64z" />
<glyph unicode="&#xb0;" d="M220 887q0 87 43.5 161t117.5 117.5t161 43.5t161 -43.5t117.5 -117.5t43.5 -161t-43.5 -161t-117.5 -117.5t-161 -43.5t-161 43.5t-117.5 117.5t-43.5 161zM431 887q0 -46 32.5 -78.5t78.5 -32.5t78.5 32.5t32.5 78.5t-32.5 78.5t-78.5 32.5t-78.5 -32.5t-32.5 -78.5z " />
<glyph unicode="&#xb1;" d="M170 112q0 47 6.5 71t19.5 33t37 9h762q24 0 37 -9t19.5 -33t6.5 -71t-6.5 -71t-19.5 -32.5t-37 -8.5h-762q-24 0 -37 8.5t-19.5 32.5t-6.5 71zM170 732q0 47 6.5 71t19.5 33t37 9h268v218q0 24 9 37t33 19.5t71 6.5t71 -6.5t32.5 -19.5t8.5 -37v-218h269q24 0 37 -9 t19.5 -33t6.5 -71t-6.5 -71t-19.5 -32.5t-37 -8.5h-269v-219q0 -24 -8.5 -37t-32.5 -19.5t-71 -6.5t-71 6.5t-33 19.5t-9 37v219h-268q-24 0 -37 8.5t-19.5 32.5t-6.5 71z" />
<glyph unicode="&#xb2;" d="M279 583q0 55 28 76l327 253q56 42 82 75.5t26 70.5q0 48 -31 75.5t-86 27.5q-92 0 -224 -60q-12 -6 -23 -6q-37 0 -61 66q-10 27 -10 49q0 40 37 58q67 32 143 49t154 17q97 0 165 -33.5t103 -93.5t35 -140q0 -78 -47 -141.5t-139 -129.5l-198 -143h365q26 0 37 -18 t11 -67t-11 -67t-37 -18h-593q-25 0 -39 24.5t-14 75.5z" />
<glyph unicode="&#xb3;" d="M280 573q0 23 10 50q12 34 28 51.5t32 17.5q8 0 12 -2q55 -23 116.5 -37.5t115.5 -14.5q148 0 148 86q0 45 -27.5 68.5t-79.5 23.5h-123q-24 0 -36 20t-12 66t12 66t36 20h104q124 0 124 86q0 41 -34 64t-99 23q-51 0 -110.5 -13.5t-120.5 -39.5q-12 -5 -21 -5 q-39 0 -60 69q-7 25 -7 45q0 45 39 61q136 56 295 56q154 0 237 -66t83 -184t-122 -177q64 -24 99 -72t35 -117q0 -125 -91.5 -189t-259.5 -64q-74 0 -153 15t-136 39q-34 14 -34 54z" />
<glyph unicode="&#xb4;" d="M408 1135q0 28 21 43l347 255q16 11 33 11q46 0 103 -75q40 -54 40 -93q0 -32 -24 -44l-407 -205q-10 -6 -23 -6q-36 0 -68 51q-22 35 -22 63z" />
<glyph unicode="&#xb6;" d="M101 809q0 117 53 202.5t147.5 130.5t217.5 45h556q35 0 49 -23.5t14 -89.5t-14 -89t-49 -23h-66v-1309q0 -33 -27.5 -48t-84.5 -15q-55 0 -76.5 14.5t-21.5 48.5v1309h-160v-1309q0 -33 -27.5 -48t-84.5 -15q-55 0 -76.5 14.5t-21.5 48.5v787q-99 15 -173 63.5 t-114.5 126.5t-40.5 179z" />
<glyph unicode="&#xb7;" d="M449 453v254q0 34 39 48.5t126 14.5t126 -14.5t39 -48.5v-254q0 -34 -39 -48.5t-126 -14.5t-126 14.5t-39 48.5z" />
<glyph unicode="&#xb8;" d="M351 -391q0 19 10 45q24 64 54 64q4 0 12 -2q82 -29 161 -29q49 0 72.5 12.5t23.5 38.5t-24 36.5t-67 10.5l-23 -1q-8 -1 -24 -1q-37 0 -37 41v204h185v-111q107 0 161.5 -52.5t54.5 -137.5q0 -96 -71.5 -147.5t-207.5 -51.5q-147 0 -256 42q-24 10 -24 39z" />
<glyph unicode="&#xb9;" d="M293 1130q0 32 33 48l308 148q18 8 37 8q27 0 46.5 -15.5t19.5 -43.5v-622h181q28 0 40 -20t12 -65t-12 -65t-40 -20h-564q-28 0 -39.5 19.5t-11.5 65.5q0 45 12 65t39 20h188v441l-139 -72q-17 -9 -31 -9q-36 0 -63 59q-16 35 -16 58z" />
<glyph unicode="&#xba;" d="M226 837q0 107 48 191.5t136 132.5t204 48q117 0 205 -48t135.5 -132.5t47.5 -191.5t-47.5 -191.5t-135.5 -132.5t-205 -48q-116 0 -204 48t-136 132.5t-48 191.5zM428 837q0 -89 50.5 -139t135.5 -50t135.5 50t50.5 139t-50.5 139.5t-135.5 50.5q-84 0 -135 -50.5 t-51 -139.5z" />
<glyph unicode="&#xbb;" d="M130 249q0 20 13 36l199 251l-199 250q-13 16 -13 36q0 42 64 85q57 39 92 39q25 0 40 -19l279 -366q9 -10 9 -25q0 -14 -9 -26l-279 -366q-15 -19 -40 -19q-35 0 -92 39q-64 43 -64 85zM650 249q0 20 13 36l199 251l-199 250q-13 16 -13 36q0 42 64 85q57 39 92 39 q25 0 40 -19l279 -366q9 -10 9 -25q0 -14 -9 -26l-279 -366q-15 -19 -40 -19q-35 0 -92 39q-64 43 -64 85z" />
<glyph unicode="&#xbc;" d="M-19 1223q0 27 27 40l257 124q14 7 31 7q23 0 39 -13.5t16 -36.5v-518h152q22 0 32.5 -17t10.5 -54t-10 -54t-33 -17h-471q-24 0 -33.5 16.5t-9.5 54.5q0 37 10 54t33 17h157v367l-116 -60q-13 -7 -26 -7q-30 0 -53 49q-13 26 -13 48zM85 288q0 19 20 31l937 521 q12 5 20 5q27 0 56 -45q24 -36 24 -58q0 -19 -20 -31l-937 -521q-12 -5 -20 -5q-27 0 -56 45q-24 36 -24 58zM622 38q0 15 3 24.5t11 20.5l314 383q15 19 37 28t57 9q45 0 68 -13t23 -35v-376h76q23 0 33.5 -17t10.5 -54q0 -38 -10.5 -54.5t-33.5 -16.5h-76v-121 q0 -21 -15.5 -30.5t-58.5 -9.5q-48 0 -69.5 10t-21.5 30v121h-294q-19 0 -36.5 32.5t-17.5 68.5zM817 79h153l5 202z" />
<glyph unicode="&#xbd;" d="M-19 1223q0 27 27 40l257 124q14 7 31 7q23 0 39 -13.5t16 -36.5v-518h152q22 0 32.5 -17t10.5 -54t-10 -54t-33 -17h-471q-24 0 -33.5 16.5t-9.5 54.5q0 37 10 54t33 17h157v367l-116 -60q-13 -7 -26 -7q-30 0 -53 49q-13 26 -13 48zM85 338q0 19 20 31l937 521 q12 5 20 5q27 0 56 -45q24 -36 24 -58q0 -19 -20 -31l-937 -521q-12 -5 -20 -5q-27 0 -56 45q-24 36 -24 58zM659 -133q0 46 23 64l273 211q48 35 69.5 62.5t21.5 58.5q0 40 -26 63t-72 23q-77 0 -187 -50q-8 -4 -19 -4q-32 0 -51 54q-8 21 -8 41q0 32 30 49 q56 26 119.5 40.5t128.5 14.5q121 0 187 -61t66 -162q0 -65 -39.5 -118t-115.5 -108l-165 -119h304q22 0 31 -15t9 -56q0 -42 -9 -56.5t-31 -14.5h-495q-44 0 -44 83z" />
<glyph unicode="&#xbe;" d="M-11 760q0 17 9 41q10 28 23 42.5t27 14.5q4 0 10 -2q47 -19 98.5 -31t95.5 -12q124 0 124 72q0 38 -23 57.5t-67 19.5h-102q-20 0 -30.5 16.5t-10.5 54.5q0 39 10.5 55.5t30.5 16.5h86q104 0 104 72q0 34 -28.5 53t-82.5 19q-86 0 -193 -44q-12 -4 -18 -4q-33 0 -50 57 q-6 21 -6 37q0 37 33 52q114 47 246 47q129 0 198.5 -55.5t69.5 -153.5q0 -99 -102 -148q53 -19 82.5 -59.5t29.5 -97.5q0 -104 -76.5 -157.5t-216.5 -53.5q-62 0 -128.5 12.5t-113.5 32.5q-29 13 -29 46zM85 298q0 19 20 31l937 521q12 5 20 5q27 0 56 -45q24 -36 24 -58 q0 -19 -20 -31l-937 -521q-12 -5 -20 -5q-27 0 -56 45q-24 36 -24 58zM622 38q0 15 3 24.5t11 20.5l314 383q15 19 37 28t57 9q45 0 68 -13t23 -35v-376h76q23 0 33.5 -17t10.5 -54q0 -38 -10.5 -54.5t-33.5 -16.5h-76v-121q0 -21 -15.5 -30.5t-58.5 -9.5q-48 0 -69.5 10 t-21.5 30v121h-294q-19 0 -36.5 32.5t-17.5 68.5zM817 79h153l5 202z" />
<glyph unicode="&#xbf;" d="M230 10q0 139 75.5 218.5t231.5 122.5l6 86q2 25 24 36.5t77 11.5t77 -11.5t24 -36.5l12 -209q2 -44 -31 -51l-103 -20q-72 -14 -107 -48.5t-35 -94.5q0 -65 40.5 -98.5t118.5 -33.5q99 0 212 46q9 4 20 4q20 0 37.5 -19t34.5 -62q18 -45 18 -73q0 -41 -38 -58 q-67 -30 -144.5 -47.5t-151.5 -17.5q-193 0 -295.5 94t-102.5 261zM499 697v174q0 34 34 48.5t111 14.5t111 -14.5t34 -48.5v-174q0 -34 -34 -48.5t-111 -14.5t-111 14.5t-34 48.5z" />
<glyph unicode="&#xc0;" d="M71 70q0 12 6 27l399 1047q14 36 46 50.5t97 14.5t96.5 -15t44.5 -50l386 -1047q5 -11 5 -26q0 -25 -24 -43t-78 -30q-51 -12 -82 -12q-28 0 -44 10t-24 31l-69 193h-438l-71 -193q-8 -21 -24.5 -31t-43.5 -10q-30 0 -81 12q-54 12 -77.5 30t-23.5 42zM268 1546 q0 39 40 93q57 75 103 75q17 0 33 -11l347 -255q21 -15 21 -43t-22 -63q-32 -51 -68 -51q-13 0 -23 6l-407 205q-24 12 -24 44zM471 455h284l-138 410h-4z" />
<glyph unicode="&#xc1;" d="M71 70q0 12 6 27l399 1047q14 36 46 50.5t97 14.5t96.5 -15t44.5 -50l386 -1047q5 -11 5 -26q0 -25 -24 -43t-78 -30q-51 -12 -82 -12q-28 0 -44 10t-24 31l-69 193h-438l-71 -193q-8 -21 -24.5 -31t-43.5 -10q-30 0 -81 12q-54 12 -77.5 30t-23.5 42zM416 1405 q0 28 21 43l347 255q16 11 33 11q46 0 103 -75q40 -54 40 -93q0 -32 -24 -44l-407 -205q-11 -6 -23 -6q-36 0 -68 51q-22 35 -22 63zM471 455h284l-138 410h-4z" />
<glyph unicode="&#xc2;" d="M71 70q0 12 6 27l399 1047q14 36 46 50.5t97 14.5t96.5 -15t44.5 -50l386 -1047q5 -11 5 -26q0 -25 -24 -43t-78 -30q-51 -12 -82 -12q-28 0 -44 10t-24 31l-69 193h-438l-71 -193q-8 -21 -24.5 -31t-43.5 -10q-30 0 -81 12q-54 12 -77.5 30t-23.5 42zM256 1390 q0 23 22 42l265 225q14 12 29.5 17.5t41.5 5.5t41.5 -5.5t29.5 -17.5l265 -225q22 -19 22 -42q0 -25 -25 -60q-30 -43 -60 -43q-16 0 -33 11l-240 138l-240 -138q-17 -11 -33 -11q-30 0 -60 43q-25 35 -25 60zM471 455h284l-138 410h-4z" />
<glyph unicode="&#xc3;" d="M71 70q0 12 6 27l399 1047q14 36 46 50.5t97 14.5t96.5 -15t44.5 -50l386 -1047q5 -11 5 -26q0 -25 -24 -43t-78 -30q-51 -12 -82 -12q-28 0 -44 10t-24 31l-69 193h-438l-71 -193q-8 -21 -24.5 -31t-43.5 -10q-30 0 -81 12q-54 12 -77.5 30t-23.5 42zM227 1446 q0 20 10 34q51 76 115 118.5t133 42.5q40 0 73 -12t77 -34q36 -18 58.5 -26.5t46.5 -8.5q61 0 129 72q14 14 30 14q29 0 66 -40q36 -40 36 -76q0 -20 -10 -34q-51 -76 -115 -118.5t-133 -42.5q-40 0 -73 12t-77 34q-36 18 -58.5 26.5t-46.5 8.5q-61 0 -129 -72 q-14 -14 -30 -14q-29 0 -66 40q-36 40 -36 76zM471 455h284l-138 410h-4z" />
<glyph unicode="&#xc4;" d="M71 70q0 12 6 27l399 1047q14 36 46 50.5t97 14.5t96.5 -15t44.5 -50l386 -1047q5 -11 5 -26q0 -25 -24 -43t-78 -30q-51 -12 -82 -12q-28 0 -44 10t-24 31l-69 193h-438l-71 -193q-8 -21 -24.5 -31t-43.5 -10q-30 0 -81 12q-54 12 -77.5 30t-23.5 42zM269 1406v164 q0 35 26 49t96 14q71 0 99.5 -14.5t28.5 -48.5v-164q0 -34 -26.5 -48.5t-96.5 -14.5t-98.5 14.5t-28.5 48.5zM471 455h284l-138 410h-4zM709 1406v164q0 35 26 49t96 14q71 0 99.5 -14.5t28.5 -48.5v-164q0 -34 -26.5 -48.5t-96.5 -14.5t-98.5 14.5t-28.5 48.5z" />
<glyph unicode="&#xc5;" d="M71 70q0 12 6 27l399 1047q14 36 46 50.5t97 14.5t96.5 -15t44.5 -50l386 -1047q5 -11 5 -26q0 -25 -24 -43t-78 -30q-51 -12 -82 -12q-28 0 -44 10t-24 31l-69 193h-438l-71 -193q-8 -21 -24.5 -31t-43.5 -10q-30 0 -81 12q-54 12 -77.5 30t-23.5 42zM352 1535 q0 74 34 134t94 94t134 34t134 -34t94 -94t34 -134t-34 -134t-94 -94t-134 -34t-134 34t-94 94t-34 134zM471 455h284l-138 410h-4zM522 1535q0 -42 25 -67t67 -25t67 25t25 67t-25 67t-67 25t-67 -25t-25 -67z" />
<glyph unicode="&#xc6;" d="M-12 71q0 11 5 26l361 1033q10 30 26 43.5t48 13.5h669q24 0 37 -10t19.5 -35.5t6.5 -72.5t-6.5 -72.5t-19.5 -35t-37 -9.5h-297v-223h234q24 0 37 -10t19.5 -35.5t6.5 -72.5t-6.5 -72.5t-19.5 -35t-37 -9.5h-234v-259h317q24 0 37 -10t19.5 -35.5t6.5 -72.5t-6.5 -72.5 t-19.5 -35t-37 -9.5h-504q-34 0 -48.5 14.5t-14.5 48.5v207h-230l-82 -243q-8 -21 -23.5 -31.5t-42.5 -10.5q-29 0 -82 14q-55 15 -78.5 32t-23.5 40zM391 505h159v447h-17z" />
<glyph unicode="&#xc7;" d="M126 594q0 188 68 327t192 213.5t288 74.5q207 0 387 -87q46 -22 46 -74q0 -27 -14 -69q-14 -43 -34.5 -63.5t-43.5 -20.5q-16 0 -30 7q-76 36 -148.5 53t-152.5 17q-142 0 -219 -97t-77 -281t77.5 -281.5t218.5 -97.5q80 0 152.5 17t148.5 53q14 7 30 7q23 0 43.5 -20.5 t34.5 -63.5q14 -42 14 -69q0 -52 -46 -74q-146 -71 -313 -84v-64q107 0 161.5 -52.5t54.5 -137.5q0 -96 -71.5 -147.5t-207.5 -51.5q-147 0 -256 42q-24 10 -24 39q0 19 10 45q24 64 54 64q4 0 12 -2q82 -29 161 -29q49 0 72.5 12.5t23.5 38.5t-24 36.5t-67 10.5l-23 -1 q-8 -1 -24 -1q-37 0 -37 41v164q-133 23 -231.5 103t-152 208.5t-53.5 294.5z" />
<glyph unicode="&#xc8;" d="M200 63v1061q0 34 14.5 48.5t48.5 14.5h714q24 0 37 -10t19.5 -35.5t6.5 -72.5t-6.5 -72.5t-19.5 -35t-37 -9.5h-527v-223h364q24 0 37 -10t19.5 -35.5t6.5 -72.5t-6.5 -72.5t-19.5 -35t-37 -9.5h-364v-259h547q24 0 37 -10t19.5 -35.5t6.5 -72.5t-6.5 -72.5t-19.5 -35 t-37 -9.5h-734q-34 0 -48.5 14.5t-14.5 48.5zM298 1546q0 39 40 93q57 75 103 75q17 0 33 -11l347 -255q21 -15 21 -43t-22 -63q-32 -51 -68 -51q-13 0 -23 6l-407 205q-24 12 -24 44z" />
<glyph unicode="&#xc9;" d="M200 63v1061q0 34 14.5 48.5t48.5 14.5h714q24 0 37 -10t19.5 -35.5t6.5 -72.5t-6.5 -72.5t-19.5 -35t-37 -9.5h-527v-223h364q24 0 37 -10t19.5 -35.5t6.5 -72.5t-6.5 -72.5t-19.5 -35t-37 -9.5h-364v-259h547q24 0 37 -10t19.5 -35.5t6.5 -72.5t-6.5 -72.5t-19.5 -35 t-37 -9.5h-734q-34 0 -48.5 14.5t-14.5 48.5zM366 1405q0 28 21 43l347 255q16 11 33 11q46 0 103 -75q40 -54 40 -93q0 -32 -24 -44l-407 -205q-10 -6 -23 -6q-36 0 -68 51q-22 35 -22 63z" />
<glyph unicode="&#xca;" d="M200 63v1061q0 34 14.5 48.5t48.5 14.5h714q24 0 37 -10t19.5 -35.5t6.5 -72.5t-6.5 -72.5t-19.5 -35t-37 -9.5h-527v-223h364q24 0 37 -10t19.5 -35.5t6.5 -72.5t-6.5 -72.5t-19.5 -35t-37 -9.5h-364v-259h547q24 0 37 -10t19.5 -35.5t6.5 -72.5t-6.5 -72.5t-19.5 -35 t-37 -9.5h-734q-34 0 -48.5 14.5t-14.5 48.5zM276 1390q0 23 22 42l265 225q14 12 29.5 17.5t41.5 5.5t41.5 -5.5t29.5 -17.5l265 -225q22 -19 22 -42q0 -25 -25 -60q-30 -43 -60 -43q-16 0 -33 11l-240 138l-240 -138q-17 -11 -33 -11q-30 0 -60 43q-25 35 -25 60z" />
<glyph unicode="&#xcb;" d="M200 63v1061q0 34 14.5 48.5t48.5 14.5h714q24 0 37 -10t19.5 -35.5t6.5 -72.5t-6.5 -72.5t-19.5 -35t-37 -9.5h-527v-223h364q24 0 37 -10t19.5 -35.5t6.5 -72.5t-6.5 -72.5t-19.5 -35t-37 -9.5h-364v-259h547q24 0 37 -10t19.5 -35.5t6.5 -72.5t-6.5 -72.5t-19.5 -35 t-37 -9.5h-734q-34 0 -48.5 14.5t-14.5 48.5zM289 1406v164q0 35 26 49t96 14q71 0 99.5 -14.5t28.5 -48.5v-164q0 -34 -26.5 -48.5t-96.5 -14.5t-98.5 14.5t-28.5 48.5zM729 1406v164q0 35 26 49t96 14q71 0 99.5 -14.5t28.5 -48.5v-164q0 -34 -26.5 -48.5t-96.5 -14.5 t-98.5 14.5t-28.5 48.5z" />
<glyph unicode="&#xcc;" d="M170 112q0 66 14 89.5t49 23.5h256v737h-236q-35 0 -49 23t-14 89t14 89.5t49 23.5h722q35 0 49 -23.5t14 -89.5t-14 -89t-49 -23h-236v-737h256q35 0 49 -23.5t14 -89.5t-14 -89t-49 -23h-762q-35 0 -49 23t-14 89zM276 1546q0 39 40 93q57 75 103 75q17 0 33 -11 l347 -255q21 -15 21 -43t-22 -63q-32 -51 -68 -51q-12 0 -23 6l-407 205q-24 12 -24 44z" />
<glyph unicode="&#xcd;" d="M170 112q0 66 14 89.5t49 23.5h256v737h-236q-35 0 -49 23t-14 89t14 89.5t49 23.5h722q35 0 49 -23.5t14 -89.5t-14 -89t-49 -23h-236v-737h256q35 0 49 -23.5t14 -89.5t-14 -89t-49 -23h-762q-35 0 -49 23t-14 89zM408 1405q0 28 21 43l347 255q16 11 33 11 q46 0 103 -75q40 -54 40 -93q0 -32 -24 -44l-407 -205q-10 -6 -23 -6q-36 0 -68 51q-22 35 -22 63z" />
<glyph unicode="&#xce;" d="M170 112q0 66 14 89.5t49 23.5h256v737h-236q-35 0 -49 23t-14 89t14 89.5t49 23.5h722q35 0 49 -23.5t14 -89.5t-14 -89t-49 -23h-236v-737h256q35 0 49 -23.5t14 -89.5t-14 -89t-49 -23h-762q-35 0 -49 23t-14 89zM256 1390q0 23 22 42l265 225q14 12 29.5 17.5 t41.5 5.5t41.5 -5.5t29.5 -17.5l265 -225q22 -19 22 -42q0 -25 -25 -60q-30 -43 -60 -43q-16 0 -33 11l-240 138l-240 -138q-17 -11 -33 -11q-30 0 -60 43q-25 35 -25 60z" />
<glyph unicode="&#xcf;" d="M170 112q0 66 14 89.5t49 23.5h256v737h-236q-35 0 -49 23t-14 89t14 89.5t49 23.5h722q35 0 49 -23.5t14 -89.5t-14 -89t-49 -23h-236v-737h256q35 0 49 -23.5t14 -89.5t-14 -89t-49 -23h-762q-35 0 -49 23t-14 89zM269 1406v164q0 35 26 49t96 14q71 0 99.5 -14.5 t28.5 -48.5v-164q0 -34 -26.5 -48.5t-96.5 -14.5t-98.5 14.5t-28.5 48.5zM709 1406v164q0 35 26 49t96 14q71 0 99.5 -14.5t28.5 -48.5v-164q0 -34 -26.5 -48.5t-96.5 -14.5t-98.5 14.5t-28.5 48.5z" />
<glyph unicode="&#xd0;" d="M40 606q0 47 6.5 71t19.5 33t37 9h87v405q0 34 14.5 48.5t48.5 14.5h321q175 0 300 -69t191.5 -202.5t66.5 -321.5t-66.5 -321.5t-191.5 -203t-300 -69.5h-321q-34 0 -48.5 14.5t-14.5 48.5v431h-87q-24 0 -37 8.5t-19.5 32.5t-6.5 71zM440 235h114q156 0 236 90.5 t80 268.5t-80 268t-236 90h-114v-233h175q24 0 37 -9t19.5 -33t6.5 -71t-6.5 -71t-19.5 -32.5t-37 -8.5h-175v-259z" />
<glyph unicode="&#xd1;" d="M140 63v1061q0 34 14.5 48.5t48.5 14.5h134q38 0 54 -24l457 -667h4v628q0 34 14.5 48.5t48.5 14.5h110q34 0 48.5 -14.5t14.5 -48.5v-1080q0 -33 -25 -49.5t-85 -16.5q-44 0 -66.5 13t-42.5 42l-489 714h-4v-684q0 -34 -14.5 -48.5t-48.5 -14.5h-110q-34 0 -48.5 14.5 t-14.5 48.5zM227 1446q0 20 10 34q51 76 115 118.5t133 42.5q40 0 73 -12t77 -34q36 -18 58.5 -26.5t46.5 -8.5q61 0 129 72q14 14 30 14q29 0 66 -40q36 -40 36 -76q0 -20 -10 -34q-51 -76 -115 -118.5t-133 -42.5q-40 0 -73 12t-77 34q-36 18 -58.5 26.5t-46.5 8.5 q-61 0 -129 -72q-14 -14 -30 -14q-29 0 -66 40q-36 40 -36 76z" />
<glyph unicode="&#xd2;" d="M66 594q0 188 68 327t192 213.5t288 74.5t288 -74.5t192 -213.5t68 -327t-68 -327t-192 -214t-288 -75t-288 75t-192 214t-68 327zM298 1546q0 39 40 93q57 75 103 75q17 0 33 -11l347 -255q21 -15 21 -43t-22 -63q-32 -51 -68 -51q-13 0 -23 6l-407 205q-24 12 -24 44z M328 594q0 -183 73 -281t213 -98t213 98t73 281t-73 280.5t-213 97.5t-213 -97.5t-73 -280.5z" />
<glyph unicode="&#xd3;" d="M66 594q0 188 68 327t192 213.5t288 74.5t288 -74.5t192 -213.5t68 -327t-68 -327t-192 -214t-288 -75t-288 75t-192 214t-68 327zM328 594q0 -183 73 -281t213 -98t213 98t73 281t-73 280.5t-213 97.5t-213 -97.5t-73 -280.5zM386 1405q0 28 21 43l347 255q16 11 33 11 q46 0 103 -75q40 -54 40 -93q0 -32 -24 -44l-407 -205q-11 -6 -23 -6q-36 0 -68 51q-22 35 -22 63z" />
<glyph unicode="&#xd4;" d="M66 594q0 188 68 327t192 213.5t288 74.5t288 -74.5t192 -213.5t68 -327t-68 -327t-192 -214t-288 -75t-288 75t-192 214t-68 327zM256 1390q0 23 22 42l265 225q14 12 29.5 17.5t41.5 5.5t41.5 -5.5t29.5 -17.5l265 -225q22 -19 22 -42q0 -25 -25 -60q-30 -43 -60 -43 q-16 0 -33 11l-240 138l-240 -138q-17 -11 -33 -11q-30 0 -60 43q-25 35 -25 60zM328 594q0 -183 73 -281t213 -98t213 98t73 281t-73 280.5t-213 97.5t-213 -97.5t-73 -280.5z" />
<glyph unicode="&#xd5;" d="M66 594q0 188 68 327t192 213.5t288 74.5t288 -74.5t192 -213.5t68 -327t-68 -327t-192 -214t-288 -75t-288 75t-192 214t-68 327zM227 1446q0 20 10 34q51 76 115 118.5t133 42.5q40 0 73 -12t77 -34q36 -18 58.5 -26.5t46.5 -8.5q61 0 129 72q14 14 30 14q29 0 66 -40 q36 -40 36 -76q0 -20 -10 -34q-51 -76 -115 -118.5t-133 -42.5q-40 0 -73 12t-77 34q-36 18 -58.5 26.5t-46.5 8.5q-61 0 -129 -72q-14 -14 -30 -14q-29 0 -66 40q-36 40 -36 76zM328 594q0 -183 73 -281t213 -98t213 98t73 281t-73 280.5t-213 97.5t-213 -97.5t-73 -280.5z " />
<glyph unicode="&#xd6;" d="M66 594q0 188 68 327t192 213.5t288 74.5t288 -74.5t192 -213.5t68 -327t-68 -327t-192 -214t-288 -75t-288 75t-192 214t-68 327zM269 1406v164q0 35 26 49t96 14q71 0 99.5 -14.5t28.5 -48.5v-164q0 -34 -26.5 -48.5t-96.5 -14.5t-98.5 14.5t-28.5 48.5zM328 594 q0 -183 73 -281t213 -98t213 98t73 281t-73 280.5t-213 97.5t-213 -97.5t-73 -280.5zM709 1406v164q0 35 26 49t96 14q71 0 99.5 -14.5t28.5 -48.5v-164q0 -34 -26.5 -48.5t-96.5 -14.5t-98.5 14.5t-28.5 48.5z" />
<glyph unicode="&#xd7;" d="M214 323q0 18 21 39l220 220l-220 220q-20 20 -20 39q0 16 12.5 35.5t42.5 49.5t50 43t35 13q18 0 39 -21l220 -220l220 220q21 21 39 21q15 0 35 -13t50 -43t42.5 -49.5t12.5 -35.5q0 -19 -20 -39l-220 -220l220 -220q21 -21 21 -39q0 -15 -13 -35t-43 -50t-49.5 -42.5 t-35.5 -12.5q-19 0 -39 20l-220 220l-220 -220q-20 -20 -39 -20q-16 0 -35.5 12.5t-49.5 42.5t-43 50t-13 35z" />
<glyph unicode="&#xd8;" d="M66 594q0 188 68 327t192 213.5t288 74.5q152 0 272 -66l75 107q20 29 43 29t69 -31q29 -20 42 -36t13 -32t-15 -37l-84 -120q65 -80 99 -188.5t34 -240.5q0 -188 -68 -327t-192 -214t-288 -75q-151 0 -272 65l-74 -106q-20 -29 -44 -29t-68 31q-29 20 -42.5 36t-13.5 32 q0 15 15 37l84 120q-65 80 -99 189t-34 241zM328 594q0 -121 31 -202l387 551q-58 29 -132 29q-140 0 -213 -97.5t-73 -280.5zM483 244q56 -29 131 -29q140 0 213 98t73 281q0 120 -31 201z" />
<glyph unicode="&#xd9;" d="M140 433v691q0 34 14.5 48.5t48.5 14.5h124q34 0 48.5 -14.5t14.5 -48.5v-671q0 -119 61 -178.5t163 -59.5t163 59.5t61 178.5v671q0 34 14.5 48.5t48.5 14.5h124q34 0 48.5 -14.5t14.5 -48.5v-691q0 -143 -57.5 -245.5t-164.5 -156t-252 -53.5t-252 53.5t-164.5 156 t-57.5 245.5zM256 1546q0 39 40 93q57 75 103 75q17 0 33 -11l347 -255q21 -15 21 -43t-22 -63q-32 -51 -68 -51q-13 0 -23 6l-407 205q-24 12 -24 44z" />
<glyph unicode="&#xda;" d="M140 433v691q0 34 14.5 48.5t48.5 14.5h124q34 0 48.5 -14.5t14.5 -48.5v-671q0 -119 61 -178.5t163 -59.5t163 59.5t61 178.5v671q0 34 14.5 48.5t48.5 14.5h124q34 0 48.5 -14.5t14.5 -48.5v-691q0 -143 -57.5 -245.5t-164.5 -156t-252 -53.5t-252 53.5t-164.5 156 t-57.5 245.5zM428 1405q0 28 21 43l347 255q16 11 33 11q46 0 103 -75q40 -54 40 -93q0 -32 -24 -44l-407 -205q-10 -6 -23 -6q-36 0 -68 51q-22 35 -22 63z" />
<glyph unicode="&#xdb;" d="M140 433v691q0 34 14.5 48.5t48.5 14.5h124q34 0 48.5 -14.5t14.5 -48.5v-671q0 -119 61 -178.5t163 -59.5t163 59.5t61 178.5v671q0 34 14.5 48.5t48.5 14.5h124q34 0 48.5 -14.5t14.5 -48.5v-691q0 -143 -57.5 -245.5t-164.5 -156t-252 -53.5t-252 53.5t-164.5 156 t-57.5 245.5zM256 1390q0 23 22 42l265 225q14 12 29.5 17.5t41.5 5.5t41.5 -5.5t29.5 -17.5l265 -225q22 -19 22 -42q0 -25 -25 -60q-30 -43 -60 -43q-16 0 -33 11l-240 138l-240 -138q-17 -11 -33 -11q-30 0 -60 43q-25 35 -25 60z" />
<glyph unicode="&#xdc;" d="M140 433v691q0 34 14.5 48.5t48.5 14.5h124q34 0 48.5 -14.5t14.5 -48.5v-671q0 -119 61 -178.5t163 -59.5t163 59.5t61 178.5v671q0 34 14.5 48.5t48.5 14.5h124q34 0 48.5 -14.5t14.5 -48.5v-691q0 -143 -57.5 -245.5t-164.5 -156t-252 -53.5t-252 53.5t-164.5 156 t-57.5 245.5zM269 1406v164q0 35 26 49t96 14q71 0 99.5 -14.5t28.5 -48.5v-164q0 -34 -26.5 -48.5t-96.5 -14.5t-98.5 14.5t-28.5 48.5zM709 1406v164q0 35 26 49t96 14q71 0 99.5 -14.5t28.5 -48.5v-164q0 -34 -26.5 -48.5t-96.5 -14.5t-98.5 14.5t-28.5 48.5z" />
<glyph unicode="&#xdd;" d="M98 1095q0 21 20.5 40t65.5 38q66 27 99 27q34 0 53 -31l280 -461l280 461q10 16 22 23.5t30 7.5q32 0 98 -27q84 -36 84 -77q0 -17 -12 -37l-379 -607v-389q0 -34 -14.5 -48.5t-48.5 -14.5h-124q-34 0 -48.5 14.5t-14.5 48.5v389l-379 607q-12 18 -12 36zM418 1405 q0 28 21 43l347 255q16 11 33 11q46 0 103 -75q40 -54 40 -93q0 -32 -24 -44l-407 -205q-11 -6 -23 -6q-36 0 -68 51q-22 35 -22 63z" />
<glyph unicode="&#xde;" d="M210 63v1061q0 34 14.5 48.5t48.5 14.5h124q34 0 48.5 -14.5t14.5 -48.5v-147h180q221 0 334 -100.5t113 -281.5q0 -182 -113 -282.5t-334 -100.5h-180v-149q0 -34 -14.5 -48.5t-48.5 -14.5h-124q-34 0 -48.5 14.5t-14.5 48.5zM460 447h149q220 0 220 148q0 74 -55 110.5 t-165 36.5h-149v-295z" />
<glyph unicode="&#xdf;" d="M188 63v814q0 133 51 232.5t147.5 153.5t230.5 54q132 0 226 -47t142 -131t48 -193q0 -94 -39 -159.5t-119 -108.5q102 -39 156.5 -118t54.5 -193q0 -127 -54 -214.5t-152 -131t-231 -43.5q-40 0 -58.5 25.5t-18.5 87.5q0 65 12 89.5t45 24.5q97 0 146 46t49 136 q0 77 -48.5 119.5t-133.5 42.5q-34 0 -48.5 24.5t-14.5 87.5q0 62 14 86t49 27q141 14 141 162q0 69 -42 111.5t-126 42.5q-86 0 -131.5 -55.5t-45.5 -160.5v-811q0 -34 -14.5 -48.5t-48.5 -14.5h-124q-34 0 -48.5 14.5t-14.5 48.5z" />
<glyph unicode="&#xe0;" d="M140 295q0 140 97.5 217t272.5 77q133 0 283 -30v29q0 67 -42 99t-148 32q-59 0 -131.5 -14.5t-143.5 -38.5q-17 -5 -29 -5q-25 0 -44.5 18.5t-35.5 62.5q-15 43 -15 72q0 51 46 68q89 32 189 48t188 16q220 0 318 -95t98 -272v-516q0 -34 -14.5 -48.5t-48.5 -14.5h-94 q-34 0 -48.5 14.5t-14.5 48.5v26q-156 -111 -325 -111q-112 0 -192.5 38.5t-123 110t-42.5 168.5zM326 1276q0 39 40 93q57 75 103 75q17 0 33 -11l347 -255q21 -15 21 -43t-22 -63q-32 -51 -68 -51q-13 0 -23 6l-407 205q-24 12 -24 44zM392 285q0 -47 35.5 -71.5 t102.5 -24.5q69 0 136.5 27.5t126.5 75.5v64q-132 27 -258 27q-70 0 -106.5 -25t-36.5 -73z" />
<glyph unicode="&#xe1;" d="M140 295q0 140 97.5 217t272.5 77q133 0 283 -30v29q0 67 -42 99t-148 32q-59 0 -131.5 -14.5t-143.5 -38.5q-17 -5 -29 -5q-25 0 -44.5 18.5t-35.5 62.5q-15 43 -15 72q0 51 46 68q89 32 189 48t188 16q220 0 318 -95t98 -272v-516q0 -34 -14.5 -48.5t-48.5 -14.5h-94 q-34 0 -48.5 14.5t-14.5 48.5v26q-156 -111 -325 -111q-112 0 -192.5 38.5t-123 110t-42.5 168.5zM392 285q0 -47 35.5 -71.5t102.5 -24.5q69 0 136.5 27.5t126.5 75.5v64q-132 27 -258 27q-70 0 -106.5 -25t-36.5 -73zM408 1135q0 28 21 43l347 255q16 11 33 11 q46 0 103 -75q40 -54 40 -93q0 -32 -24 -44l-407 -205q-10 -6 -23 -6q-36 0 -68 51q-22 35 -22 63z" />
<glyph unicode="&#xe2;" d="M140 295q0 140 97.5 217t272.5 77q133 0 283 -30v29q0 67 -42 99t-148 32q-59 0 -131.5 -14.5t-143.5 -38.5q-17 -5 -29 -5q-25 0 -44.5 18.5t-35.5 62.5q-15 43 -15 72q0 51 46 68q89 32 189 48t188 16q220 0 318 -95t98 -272v-516q0 -34 -14.5 -48.5t-48.5 -14.5h-94 q-34 0 -48.5 14.5t-14.5 48.5v26q-156 -111 -325 -111q-112 0 -192.5 38.5t-123 110t-42.5 168.5zM276 1120q0 23 22 42l265 225q14 12 29.5 17.5t41.5 5.5t41.5 -5.5t29.5 -17.5l265 -225q22 -19 22 -42q0 -25 -25 -60q-30 -43 -60 -43q-16 0 -33 11l-240 138l-240 -138 q-17 -11 -33 -11q-30 0 -60 43q-25 35 -25 60zM392 285q0 -47 35.5 -71.5t102.5 -24.5q69 0 136.5 27.5t126.5 75.5v64q-132 27 -258 27q-70 0 -106.5 -25t-36.5 -73z" />
<glyph unicode="&#xe3;" d="M140 295q0 140 97.5 217t272.5 77q133 0 283 -30v29q0 67 -42 99t-148 32q-59 0 -131.5 -14.5t-143.5 -38.5q-17 -5 -29 -5q-25 0 -44.5 18.5t-35.5 62.5q-15 43 -15 72q0 51 46 68q89 32 189 48t188 16q220 0 318 -95t98 -272v-516q0 -34 -14.5 -48.5t-48.5 -14.5h-94 q-34 0 -48.5 14.5t-14.5 48.5v26q-156 -111 -325 -111q-112 0 -192.5 38.5t-123 110t-42.5 168.5zM247 1176q0 20 10 34q51 76 115 118.5t133 42.5q40 0 73 -12t77 -34q36 -18 58.5 -26.5t46.5 -8.5q61 0 129 72q14 14 30 14q29 0 66 -40q36 -40 36 -76q0 -20 -10 -34 q-51 -76 -115 -118.5t-133 -42.5q-40 0 -73 12t-77 34q-36 18 -58.5 26.5t-46.5 8.5q-61 0 -129 -72q-14 -14 -30 -14q-29 0 -66 40q-36 40 -36 76zM392 285q0 -47 35.5 -71.5t102.5 -24.5q69 0 136.5 27.5t126.5 75.5v64q-132 27 -258 27q-70 0 -106.5 -25t-36.5 -73z" />
<glyph unicode="&#xe4;" d="M140 295q0 140 97.5 217t272.5 77q133 0 283 -30v29q0 67 -42 99t-148 32q-59 0 -131.5 -14.5t-143.5 -38.5q-17 -5 -29 -5q-25 0 -44.5 18.5t-35.5 62.5q-15 43 -15 72q0 51 46 68q89 32 189 48t188 16q220 0 318 -95t98 -272v-516q0 -34 -14.5 -48.5t-48.5 -14.5h-94 q-34 0 -48.5 14.5t-14.5 48.5v26q-156 -111 -325 -111q-112 0 -192.5 38.5t-123 110t-42.5 168.5zM279 1136v164q0 35 26 49t96 14q71 0 99.5 -14.5t28.5 -48.5v-164q0 -34 -26.5 -48.5t-96.5 -14.5t-98.5 14.5t-28.5 48.5zM392 285q0 -47 35.5 -71.5t102.5 -24.5 q69 0 136.5 27.5t126.5 75.5v64q-132 27 -258 27q-70 0 -106.5 -25t-36.5 -73zM719 1136v164q0 35 26 49t96 14q71 0 99.5 -14.5t28.5 -48.5v-164q0 -34 -26.5 -48.5t-96.5 -14.5t-98.5 14.5t-28.5 48.5z" />
<glyph unicode="&#xe5;" d="M140 295q0 140 97.5 217t272.5 77q133 0 283 -30v29q0 67 -42 99t-148 32q-59 0 -131.5 -14.5t-143.5 -38.5q-17 -5 -29 -5q-25 0 -44.5 18.5t-35.5 62.5q-15 43 -15 72q0 51 46 68q89 32 189 48t188 16q220 0 318 -95t98 -272v-516q0 -34 -14.5 -48.5t-48.5 -14.5h-94 q-34 0 -48.5 14.5t-14.5 48.5v26q-156 -111 -325 -111q-112 0 -192.5 38.5t-123 110t-42.5 168.5zM379 1295q0 74 34 134t94 94t134 34t134 -34t94 -94t34 -134t-34 -134t-94 -94t-134 -34t-134 34t-94 94t-34 134zM392 285q0 -47 35.5 -71.5t102.5 -24.5q69 0 136.5 27.5 t126.5 75.5v64q-132 27 -258 27q-70 0 -106.5 -25t-36.5 -73zM549 1295q0 -42 25 -67t67 -25t67 25t25 67t-25 67t-67 25t-67 -25t-25 -67z" />
<glyph unicode="&#xe6;" d="M32 275q0 153 102.5 231.5t300.5 78.5q35 0 74 -3v6q0 64 -36 97.5t-108 33.5q-43 0 -85 -13.5t-91 -38.5q-16 -8 -30 -8q-44 0 -81 79q-18 39 -18 68q0 42 36 62q65 38 141.5 58t155.5 20q160 0 241 -94q83 94 224 94q130 0 203.5 -64t102.5 -176.5t29 -273.5 q0 -34 -14.5 -48t-48.5 -14h-406q21 -165 134 -165q55 0 105 11.5t113 38.5q15 6 28 6q24 0 41 -21t31 -61t14 -65q0 -46 -45 -65q-164 -71 -302 -71q-157 0 -240 124q-94 -124 -268 -124q-90 0 -158.5 35.5t-106.5 102.5t-38 159zM260 285q0 -45 25 -70.5t73 -25.5 q70 0 110.5 47.5t40.5 121.5v32q-42 3 -75 3q-95 0 -134.5 -26t-39.5 -82zM724 565h244q-5 74 -32.5 114t-77.5 40q-60 0 -91.5 -37.5t-42.5 -116.5z" />
<glyph unicode="&#xe7;" d="M137 462q0 139 65 249t182.5 172.5t269.5 62.5q87 0 183 -26t185 -71q45 -23 45 -71q0 -29 -16 -70q-31 -81 -78 -81q-15 0 -32 9q-151 78 -287 78q-74 0 -131.5 -30.5t-89.5 -87.5t-32 -134t32 -134t89.5 -87.5t131.5 -30.5q145 0 304 89q18 10 33 10q45 0 79 -79 q18 -43 18 -73q0 -45 -43 -69q-183 -98 -351 -109v-62q107 0 161.5 -52.5t54.5 -137.5q0 -96 -71.5 -147.5t-207.5 -51.5q-147 0 -256 42q-24 10 -24 39q0 19 10 45q24 64 54 64q4 0 12 -2q82 -29 161 -29q49 0 72.5 12.5t23.5 38.5t-24 36.5t-67 10.5l-23 -1q-8 -1 -24 -1 q-37 0 -37 41v170q-113 27 -197 93t-129.5 162.5t-45.5 212.5z" />
<glyph unicode="&#xe8;" d="M134 462q0 140 59.5 250t171.5 172t263 62q152 0 258 -65.5t160 -181.5t54 -267q0 -34 -14.5 -48t-48.5 -14h-642q19 -81 77 -123t146 -42q175 0 356 55q12 4 24 4q22 0 38 -20t29 -68q10 -37 10 -63t-11.5 -40.5t-37.5 -23.5q-102 -34 -212.5 -52.5t-215.5 -18.5 q-146 0 -250.5 62t-159 171.5t-54.5 250.5zM316 1276q0 39 40 93q57 75 103 75q17 0 33 -11l347 -255q21 -15 21 -43t-22 -63q-32 -51 -68 -51q-12 0 -23 6l-407 205q-24 12 -24 44zM399 565h446q-17 72 -74 113t-143 41q-91 0 -149 -38.5t-80 -115.5z" />
<glyph unicode="&#xe9;" d="M134 462q0 140 59.5 250t171.5 172t263 62q152 0 258 -65.5t160 -181.5t54 -267q0 -34 -14.5 -48t-48.5 -14h-642q19 -81 77 -123t146 -42q175 0 356 55q12 4 24 4q22 0 38 -20t29 -68q10 -37 10 -63t-11.5 -40.5t-37.5 -23.5q-102 -34 -212.5 -52.5t-215.5 -18.5 q-146 0 -250.5 62t-159 171.5t-54.5 250.5zM399 565h446q-17 72 -74 113t-143 41q-91 0 -149 -38.5t-80 -115.5zM408 1135q0 28 21 43l347 255q16 11 33 11q46 0 103 -75q40 -54 40 -93q0 -32 -24 -44l-407 -205q-10 -6 -23 -6q-36 0 -68 51q-22 35 -22 63z" />
<glyph unicode="&#xea;" d="M134 462q0 140 59.5 250t171.5 172t263 62q152 0 258 -65.5t160 -181.5t54 -267q0 -34 -14.5 -48t-48.5 -14h-642q19 -81 77 -123t146 -42q175 0 356 55q12 4 24 4q22 0 38 -20t29 -68q10 -37 10 -63t-11.5 -40.5t-37.5 -23.5q-102 -34 -212.5 -52.5t-215.5 -18.5 q-146 0 -250.5 62t-159 171.5t-54.5 250.5zM266 1120q0 23 22 42l265 225q14 12 29.5 17.5t41.5 5.5t41.5 -5.5t29.5 -17.5l265 -225q22 -19 22 -42q0 -25 -25 -60q-30 -43 -60 -43q-16 0 -33 11l-240 138l-240 -138q-17 -11 -33 -11q-30 0 -60 43q-25 35 -25 60zM399 565 h446q-17 72 -74 113t-143 41q-91 0 -149 -38.5t-80 -115.5z" />
<glyph unicode="&#xeb;" d="M134 462q0 140 59.5 250t171.5 172t263 62q152 0 258 -65.5t160 -181.5t54 -267q0 -34 -14.5 -48t-48.5 -14h-642q19 -81 77 -123t146 -42q175 0 356 55q12 4 24 4q22 0 38 -20t29 -68q10 -37 10 -63t-11.5 -40.5t-37.5 -23.5q-102 -34 -212.5 -52.5t-215.5 -18.5 q-146 0 -250.5 62t-159 171.5t-54.5 250.5zM269 1136v164q0 35 26 49t96 14q71 0 99.5 -14.5t28.5 -48.5v-164q0 -34 -26.5 -48.5t-96.5 -14.5t-98.5 14.5t-28.5 48.5zM399 565h446q-17 72 -74 113t-143 41q-91 0 -149 -38.5t-80 -115.5zM709 1136v164q0 35 26 49t96 14 q71 0 99.5 -14.5t28.5 -48.5v-164q0 -34 -26.5 -48.5t-96.5 -14.5t-98.5 14.5t-28.5 48.5z" />
<glyph unicode="&#xec;" d="M167 112q0 66 14 89.5t49 23.5h273v474h-213q-35 0 -49 23t-14 89t14 89.5t49 23.5h400q34 0 48.5 -14.5t14.5 -48.5v-636h281q35 0 49 -23.5t14 -89.5t-14 -89t-49 -23h-804q-35 0 -49 23t-14 89zM238 1276q0 39 40 93q57 75 103 75q17 0 33 -11l347 -255q21 -15 21 -43 t-22 -63q-32 -51 -68 -51q-13 0 -23 6l-407 205q-24 12 -24 44z" />
<glyph unicode="&#xed;" d="M167 112q0 66 14 89.5t49 23.5h273v474h-213q-35 0 -49 23t-14 89t14 89.5t49 23.5h400q34 0 48.5 -14.5t14.5 -48.5v-636h281q35 0 49 -23.5t14 -89.5t-14 -89t-49 -23h-804q-35 0 -49 23t-14 89zM388 1135q0 28 21 43l347 255q16 11 33 11q46 0 103 -75q40 -54 40 -93 q0 -32 -24 -44l-407 -205q-11 -6 -23 -6q-36 0 -68 51q-22 35 -22 63z" />
<glyph unicode="&#xee;" d="M167 112q0 66 14 89.5t49 23.5h273v474h-213q-35 0 -49 23t-14 89t14 89.5t49 23.5h400q34 0 48.5 -14.5t14.5 -48.5v-636h281q35 0 49 -23.5t14 -89.5t-14 -89t-49 -23h-804q-35 0 -49 23t-14 89zM256 1120q0 23 22 42l265 225q14 12 29.5 17.5t41.5 5.5t41.5 -5.5 t29.5 -17.5l265 -225q22 -19 22 -42q0 -25 -25 -60q-30 -43 -60 -43q-16 0 -33 11l-240 138l-240 -138q-17 -11 -33 -11q-30 0 -60 43q-25 35 -25 60z" />
<glyph unicode="&#xef;" d="M167 112q0 66 14 89.5t49 23.5h273v474h-213q-35 0 -49 23t-14 89t14 89.5t49 23.5h400q34 0 48.5 -14.5t14.5 -48.5v-636h281q35 0 49 -23.5t14 -89.5t-14 -89t-49 -23h-804q-35 0 -49 23t-14 89zM259 1136v164q0 35 26 49t96 14q71 0 99.5 -14.5t28.5 -48.5v-164 q0 -34 -26.5 -48.5t-96.5 -14.5t-98.5 14.5t-28.5 48.5zM699 1136v164q0 35 26 49t96 14q71 0 99.5 -14.5t28.5 -48.5v-164q0 -34 -26.5 -48.5t-96.5 -14.5t-98.5 14.5t-28.5 48.5z" />
<glyph unicode="&#xf0;" d="M122 422q0 129 57.5 230t162.5 157.5t242 56.5q107 0 190 -50q-59 90 -154 168l-153 -81q-20 -11 -34 -11q-17 0 -32 14.5t-33 48.5q-23 44 -23 66q0 15 8.5 26t26.5 20l65 35l-67 35q-31 16 -31 46q0 34 38 94q25 39 46 56t43 17q16 0 36 -10q97 -49 181 -108l150 80 q19 10 34 10q17 0 32 -14.5t33 -48.5q22 -43 22 -65q0 -15 -8.5 -26t-25.5 -20l-84 -45q130 -132 196 -294t66 -347q0 -148 -60.5 -257.5t-171.5 -168t-260 -58.5q-147 0 -258.5 56.5t-172.5 157.5t-61 230zM390 422q0 -101 61 -159t163 -58t163 58t61 159t-61 159t-163 58 t-163 -58t-61 -159z" />
<glyph unicode="&#xf1;" d="M170 63v798q0 34 14.5 48.5t48.5 14.5h94q34 0 48.5 -14.5t14.5 -48.5v-125q70 99 162 154.5t198 55.5q98 0 171 -42t112 -118t39 -176v-547q0 -34 -14.5 -48.5t-48.5 -14.5h-124q-34 0 -48.5 14.5t-14.5 48.5v488q0 158 -137 158q-64 0 -125.5 -49t-100.5 -130t-39 -172 v-295q0 -34 -14.5 -48.5t-48.5 -14.5h-124q-34 0 -48.5 14.5t-14.5 48.5zM237 1176q0 20 10 34q51 76 115 118.5t133 42.5q40 0 73 -12t77 -34q36 -18 58.5 -26.5t46.5 -8.5q61 0 129 72q14 14 30 14q29 0 66 -40q36 -40 36 -76q0 -20 -10 -34q-51 -76 -115 -118.5 t-133 -42.5q-40 0 -73 12t-77 34q-36 18 -58.5 26.5t-46.5 8.5q-61 0 -129 -72q-14 -14 -30 -14q-29 0 -66 40q-36 40 -36 76z" />
<glyph unicode="&#xf2;" d="M113 462q0 140 61.5 250t175 172t264.5 62t264.5 -62t175 -172t61.5 -250t-61.5 -250t-175 -172t-264.5 -62t-264.5 62t-175 172t-61.5 250zM298 1276q0 39 40 93q57 75 103 75q17 0 33 -11l347 -255q21 -15 21 -43t-22 -63q-32 -51 -68 -51q-13 0 -23 6l-407 205 q-24 12 -24 44zM375 462q0 -76 29.5 -133t83.5 -88t126 -31t126 31t83.5 88t29.5 133t-29.5 133t-83.5 88t-126 31t-126 -31t-83.5 -88t-29.5 -133z" />
<glyph unicode="&#xf3;" d="M113 462q0 140 61.5 250t175 172t264.5 62t264.5 -62t175 -172t61.5 -250t-61.5 -250t-175 -172t-264.5 -62t-264.5 62t-175 172t-61.5 250zM375 462q0 -76 29.5 -133t83.5 -88t126 -31t126 31t83.5 88t29.5 133t-29.5 133t-83.5 88t-126 31t-126 -31t-83.5 -88 t-29.5 -133zM386 1135q0 28 21 43l347 255q16 11 33 11q46 0 103 -75q40 -54 40 -93q0 -32 -24 -44l-407 -205q-11 -6 -23 -6q-36 0 -68 51q-22 35 -22 63z" />
<glyph unicode="&#xf4;" d="M113 462q0 140 61.5 250t175 172t264.5 62t264.5 -62t175 -172t61.5 -250t-61.5 -250t-175 -172t-264.5 -62t-264.5 62t-175 172t-61.5 250zM256 1120q0 23 22 42l265 225q14 12 29.5 17.5t41.5 5.5t41.5 -5.5t29.5 -17.5l265 -225q22 -19 22 -42q0 -25 -25 -60 q-30 -43 -60 -43q-16 0 -33 11l-240 138l-240 -138q-17 -11 -33 -11q-30 0 -60 43q-25 35 -25 60zM375 462q0 -76 29.5 -133t83.5 -88t126 -31t126 31t83.5 88t29.5 133t-29.5 133t-83.5 88t-126 31t-126 -31t-83.5 -88t-29.5 -133z" />
<glyph unicode="&#xf5;" d="M113 462q0 140 61.5 250t175 172t264.5 62t264.5 -62t175 -172t61.5 -250t-61.5 -250t-175 -172t-264.5 -62t-264.5 62t-175 172t-61.5 250zM227 1176q0 20 10 34q51 76 115 118.5t133 42.5q40 0 73 -12t77 -34q36 -18 58.5 -26.5t46.5 -8.5q61 0 129 72q14 14 30 14 q29 0 66 -40q36 -40 36 -76q0 -20 -10 -34q-51 -76 -115 -118.5t-133 -42.5q-40 0 -73 12t-77 34q-36 18 -58.5 26.5t-46.5 8.5q-61 0 -129 -72q-14 -14 -30 -14q-29 0 -66 40q-36 40 -36 76zM375 462q0 -76 29.5 -133t83.5 -88t126 -31t126 31t83.5 88t29.5 133t-29.5 133 t-83.5 88t-126 31t-126 -31t-83.5 -88t-29.5 -133z" />
<glyph unicode="&#xf6;" d="M113 462q0 140 61.5 250t175 172t264.5 62t264.5 -62t175 -172t61.5 -250t-61.5 -250t-175 -172t-264.5 -62t-264.5 62t-175 172t-61.5 250zM269 1136v164q0 35 26 49t96 14q71 0 99.5 -14.5t28.5 -48.5v-164q0 -34 -26.5 -48.5t-96.5 -14.5t-98.5 14.5t-28.5 48.5z M375 462q0 -76 29.5 -133t83.5 -88t126 -31t126 31t83.5 88t29.5 133t-29.5 133t-83.5 88t-126 31t-126 -31t-83.5 -88t-29.5 -133zM709 1136v164q0 35 26 49t96 14q71 0 99.5 -14.5t28.5 -48.5v-164q0 -34 -26.5 -48.5t-96.5 -14.5t-98.5 14.5t-28.5 48.5z" />
<glyph unicode="&#xf7;" d="M170 582q0 47 6.5 71t19.5 33t37 9h762q24 0 37 -9t19.5 -33t6.5 -71t-6.5 -71t-19.5 -32.5t-37 -8.5h-762q-24 0 -37 8.5t-19.5 32.5t-6.5 71zM489 133v144q0 34 29.5 48.5t95.5 14.5t95.5 -14.5t29.5 -48.5v-144q0 -34 -29.5 -48.5t-95.5 -14.5t-95.5 14.5t-29.5 48.5z M489 888v144q0 34 29.5 48.5t95.5 14.5t95.5 -14.5t29.5 -48.5v-144q0 -34 -29.5 -48.5t-95.5 -14.5t-95.5 14.5t-29.5 48.5z" />
<glyph unicode="&#xf8;" d="M83 29q0 18 21 41l97 100q-43 60 -65.5 134.5t-22.5 157.5q0 140 61.5 250t175 172t264.5 62q158 0 274 -68l102 105q21 23 42 23q26 0 69 -42q44 -43 44 -69q0 -18 -21 -41l-97 -100q43 -60 65.5 -134.5t22.5 -157.5q0 -140 -61.5 -250t-175 -172t-264.5 -62 q-158 0 -274 68l-102 -105q-21 -23 -42 -23q-26 0 -69 42q-44 43 -44 69zM375 462q0 -53 15 -98l322 332q-44 18 -98 18q-72 0 -126 -31t-83.5 -88t-29.5 -133zM516 228q44 -18 98 -18q72 0 126 31t83.5 88t29.5 133q0 53 -15 98z" />
<glyph unicode="&#xf9;" d="M156 314v547q0 34 14.5 48.5t48.5 14.5h124q34 0 48.5 -14.5t14.5 -48.5v-488q0 -158 137 -158q64 0 125.5 49t100.5 130t39 172v295q0 34 14.5 48.5t48.5 14.5h124q34 0 48.5 -14.5t14.5 -48.5v-798q0 -34 -14.5 -48.5t-48.5 -14.5h-94q-34 0 -48.5 14.5t-14.5 48.5v125 q-70 -99 -162 -154.5t-198 -55.5q-98 0 -171 42t-112 118t-39 176zM288 1276q0 39 40 93q57 75 103 75q17 0 33 -11l347 -255q21 -15 21 -43t-22 -63q-32 -51 -68 -51q-12 0 -23 6l-407 205q-24 12 -24 44z" />
<glyph unicode="&#xfa;" d="M156 314v547q0 34 14.5 48.5t48.5 14.5h124q34 0 48.5 -14.5t14.5 -48.5v-488q0 -158 137 -158q64 0 125.5 49t100.5 130t39 172v295q0 34 14.5 48.5t48.5 14.5h124q34 0 48.5 -14.5t14.5 -48.5v-798q0 -34 -14.5 -48.5t-48.5 -14.5h-94q-34 0 -48.5 14.5t-14.5 48.5v125 q-70 -99 -162 -154.5t-198 -55.5q-98 0 -171 42t-112 118t-39 176zM406 1135q0 28 21 43l347 255q16 11 33 11q46 0 103 -75q40 -54 40 -93q0 -32 -24 -44l-407 -205q-10 -6 -23 -6q-36 0 -68 51q-22 35 -22 63z" />
<glyph unicode="&#xfb;" d="M156 314v547q0 34 14.5 48.5t48.5 14.5h124q34 0 48.5 -14.5t14.5 -48.5v-488q0 -158 137 -158q64 0 125.5 49t100.5 130t39 172v295q0 34 14.5 48.5t48.5 14.5h124q34 0 48.5 -14.5t14.5 -48.5v-798q0 -34 -14.5 -48.5t-48.5 -14.5h-94q-34 0 -48.5 14.5t-14.5 48.5v125 q-70 -99 -162 -154.5t-198 -55.5q-98 0 -171 42t-112 118t-39 176zM249 1120q0 23 22 42l265 225q14 12 29.5 17.5t41.5 5.5t41.5 -5.5t29.5 -17.5l265 -225q22 -19 22 -42q0 -25 -25 -60q-30 -43 -60 -43q-16 0 -33 11l-240 138l-240 -138q-17 -11 -33 -11q-30 0 -60 43 q-25 35 -25 60z" />
<glyph unicode="&#xfc;" d="M156 314v547q0 34 14.5 48.5t48.5 14.5h124q34 0 48.5 -14.5t14.5 -48.5v-488q0 -158 137 -158q64 0 125.5 49t100.5 130t39 172v295q0 34 14.5 48.5t48.5 14.5h124q34 0 48.5 -14.5t14.5 -48.5v-798q0 -34 -14.5 -48.5t-48.5 -14.5h-94q-34 0 -48.5 14.5t-14.5 48.5v125 q-70 -99 -162 -154.5t-198 -55.5q-98 0 -171 42t-112 118t-39 176zM262 1136v164q0 35 26 49t96 14q71 0 99.5 -14.5t28.5 -48.5v-164q0 -34 -26.5 -48.5t-96.5 -14.5t-98.5 14.5t-28.5 48.5zM702 1136v164q0 35 26 49t96 14q71 0 99.5 -14.5t28.5 -48.5v-164 q0 -34 -26.5 -48.5t-96.5 -14.5t-98.5 14.5t-28.5 48.5z" />
<glyph unicode="&#xfd;" d="M108 854q0 48 105 72q51 12 82 12q28 0 45 -10t26 -31l251 -599l250 599q8 21 24.5 31t44.5 10q30 0 81 -12q104 -24 104 -71q0 -10 -7 -28l-537 -1193q-18 -39 -65 -39q-31 0 -90 17q-53 16 -77.5 34t-24.5 41q0 12 8 28l149 291l-363 821q-6 14 -6 27zM441 1135 q0 28 21 43l347 255q16 11 33 11q46 0 103 -75q40 -54 40 -93q0 -32 -24 -44l-407 -205q-10 -6 -23 -6q-36 0 -68 51q-22 35 -22 63z" />
<glyph unicode="&#xfe;" d="M167 -325v1574q0 34 14.5 48.5t48.5 14.5h124q34 0 48.5 -14.5t14.5 -48.5v-421q51 57 118 87.5t145 30.5q131 0 227 -64t147 -174t51 -246t-51 -246t-147 -174t-227 -64q-78 0 -145 30.5t-118 87.5v-421q0 -34 -14.5 -48.5t-48.5 -14.5h-124q-34 0 -48.5 14.5 t-14.5 48.5zM410 462q0 -79 31 -136t83 -86.5t116 -29.5q94 0 148.5 68t54.5 184t-54.5 184t-148.5 68q-64 0 -116 -29.5t-83 -86.5t-31 -136z" />
<glyph unicode="&#xff;" d="M108 854q0 48 105 72q51 12 82 12q28 0 45 -10t26 -31l251 -599l250 599q8 21 24.5 31t44.5 10q30 0 81 -12q104 -24 104 -71q0 -10 -7 -28l-537 -1193q-18 -39 -65 -39q-31 0 -90 17q-53 16 -77.5 34t-24.5 41q0 12 8 28l149 291l-363 821q-6 14 -6 27zM274 1136v164 q0 35 26 49t96 14q71 0 99.5 -14.5t28.5 -48.5v-164q0 -34 -26.5 -48.5t-96.5 -14.5t-98.5 14.5t-28.5 48.5zM714 1136v164q0 35 26 49t96 14q71 0 99.5 -14.5t28.5 -48.5v-164q0 -34 -26.5 -48.5t-96.5 -14.5t-98.5 14.5t-28.5 48.5z" />
<glyph unicode="&#x152;" d="M53 594q0 186 69.5 320t194 203.5t287.5 69.5h493q24 0 37 -10t19.5 -35.5t6.5 -72.5t-6.5 -72.5t-19.5 -35t-37 -9.5h-297v-223h234q24 0 37 -10t19.5 -35.5t6.5 -72.5t-6.5 -72.5t-19.5 -35t-37 -9.5h-234v-259h317q24 0 37 -10t19.5 -35.5t6.5 -72.5t-6.5 -72.5 t-19.5 -35t-37 -9.5h-513q-163 0 -287.5 70t-194 204t-69.5 320zM313 594q0 -108 30.5 -184.5t84 -119.5t122.5 -52v711q-69 -9 -122.5 -51.5t-84 -119.5t-30.5 -184z" />
<glyph unicode="&#x153;" d="M27 462q0 224 86 354t271 130q153 0 236 -110q88 110 238 110q130 0 203.5 -64t102.5 -176.5t29 -273.5q0 -34 -14.5 -48t-48.5 -14h-406q21 -165 134 -165q55 0 104.5 11.5t113.5 38.5q15 6 28 6q24 0 41 -21t31 -61t14 -65q0 -46 -45 -65q-164 -71 -302 -71 q-146 0 -227 106q-82 -106 -232 -106q-185 0 -271 130t-86 354zM265 462q0 -134 27.5 -195.5t91.5 -61.5t91.5 61.5t27.5 195.5t-27.5 195.5t-91.5 61.5t-91.5 -61.5t-27.5 -195.5zM724 565h244q-5 74 -32.5 114t-77.5 40q-60 0 -91.5 -37.5t-42.5 -116.5z" />
<glyph unicode="&#x178;" d="M98 1095q0 21 20.5 40t65.5 38q66 27 99 27q34 0 53 -31l280 -461l280 461q10 16 22 23.5t30 7.5q32 0 98 -27q84 -36 84 -77q0 -17 -12 -37l-379 -607v-389q0 -34 -14.5 -48.5t-48.5 -14.5h-124q-34 0 -48.5 14.5t-14.5 48.5v389l-379 607q-12 18 -12 36zM269 1406v164 q0 35 26 49t96 14q71 0 99.5 -14.5t28.5 -48.5v-164q0 -34 -26.5 -48.5t-96.5 -14.5t-98.5 14.5t-28.5 48.5zM709 1406v164q0 35 26 49t96 14q71 0 99.5 -14.5t28.5 -48.5v-164q0 -34 -26.5 -48.5t-96.5 -14.5t-98.5 14.5t-28.5 48.5z" />
<glyph unicode="&#x2c6;" d="M256 1120q0 23 22 42l265 225q14 12 29.5 17.5t41.5 5.5t41.5 -5.5t29.5 -17.5l265 -225q22 -19 22 -42q0 -25 -25 -60q-30 -43 -60 -43q-16 0 -33 11l-240 138l-240 -138q-17 -11 -33 -11q-30 0 -60 43q-25 35 -25 60z" />
<glyph unicode="&#x2dc;" d="M227 1176q0 20 10 34q51 76 115 118.5t133 42.5q40 0 73 -12t77 -34q36 -18 58.5 -26.5t46.5 -8.5q61 0 129 72q14 14 30 14q29 0 66 -40q36 -40 36 -76q0 -20 -10 -34q-51 -76 -115 -118.5t-133 -42.5q-40 0 -73 12t-77 34q-36 18 -58.5 26.5t-46.5 8.5q-61 0 -129 -72 q-14 -14 -30 -14q-29 0 -66 40q-36 40 -36 76z" />
<glyph unicode="&#x2000;" horiz-adv-x="898" />
<glyph unicode="&#x2001;" horiz-adv-x="1797" />
<glyph unicode="&#x2002;" horiz-adv-x="898" />
<glyph unicode="&#x2003;" horiz-adv-x="1797" />
<glyph unicode="&#x2004;" horiz-adv-x="599" />
<glyph unicode="&#x2005;" horiz-adv-x="449" />
<glyph unicode="&#x2006;" horiz-adv-x="299" />
<glyph unicode="&#x2007;" horiz-adv-x="299" />
<glyph unicode="&#x2008;" horiz-adv-x="224" />
<glyph unicode="&#x2009;" horiz-adv-x="359" />
<glyph unicode="&#x200a;" horiz-adv-x="99" />
<glyph unicode="&#x2010;" d="M170 582q0 47 6.5 71t19.5 33t37 9h762q24 0 37 -9t19.5 -33t6.5 -71t-6.5 -71t-19.5 -32.5t-37 -8.5h-762q-24 0 -37 8.5t-19.5 32.5t-6.5 71z" />
<glyph unicode="&#x2011;" d="M170 582q0 47 6.5 71t19.5 33t37 9h762q24 0 37 -9t19.5 -33t6.5 -71t-6.5 -71t-19.5 -32.5t-37 -8.5h-762q-24 0 -37 8.5t-19.5 32.5t-6.5 71z" />
<glyph unicode="&#x2012;" d="M170 582q0 47 6.5 71t19.5 33t37 9h762q24 0 37 -9t19.5 -33t6.5 -71t-6.5 -71t-19.5 -32.5t-37 -8.5h-762q-24 0 -37 8.5t-19.5 32.5t-6.5 71z" />
<glyph unicode="&#x2013;" d="M170 582q0 47 6.5 71t19.5 33t37 9h762q24 0 37 -9t19.5 -33t6.5 -71t-6.5 -71t-19.5 -32.5t-37 -8.5h-762q-24 0 -37 8.5t-19.5 32.5t-6.5 71z" />
<glyph unicode="&#x2014;" d="M-30 582q0 47 6.5 71t19.5 33t37 9h1162q24 0 37 -9t19.5 -33t6.5 -71t-6.5 -71t-19.5 -32.5t-37 -8.5h-1162q-24 0 -37 8.5t-19.5 32.5t-6.5 71z" />
<glyph unicode="&#x2018;" d="M379 742q0 15 7 30l207 467q16 37 46 52.5t80 15.5q43 0 63 -14t20 -46q0 -11 -3 -26l-90 -472q-4 -19 -17.5 -29.5t-34.5 -10.5h-243q-17 0 -26 9t-9 24z" />
<glyph unicode="&#x2019;" d="M411 731q0 11 3 26l90 472q4 19 17.5 29.5t34.5 10.5h243q17 0 26 -9t9 -24t-7 -30l-207 -467q-16 -37 -46 -52.5t-80 -15.5q-43 0 -63 14t-20 46z" />
<glyph unicode="&#x201a;" d="M411 -234q0 11 3 26l90 472q4 19 17.5 29.5t34.5 10.5h243q17 0 26 -9t9 -24t-7 -30l-207 -467q-16 -37 -46 -52.5t-80 -15.5q-43 0 -63 14t-20 46z" />
<glyph unicode="&#x201c;" d="M99 742q0 15 7 30l207 467q16 37 46 52.5t80 15.5q43 0 63 -14t20 -46q0 -11 -3 -26l-90 -472q-4 -19 -17.5 -29.5t-34.5 -10.5h-243q-17 0 -26 9t-9 24zM659 742q0 15 7 30l207 467q16 37 46 52.5t80 15.5q43 0 63 -14t20 -46q0 -11 -3 -26l-90 -472q-4 -19 -17.5 -29.5 t-34.5 -10.5h-243q-17 0 -26 9t-9 24z" />
<glyph unicode="&#x201d;" d="M131 731q0 11 3 26l90 472q4 19 17.5 29.5t34.5 10.5h243q17 0 26 -9t9 -24t-7 -30l-207 -467q-16 -37 -46 -52.5t-80 -15.5q-43 0 -63 14t-20 46zM691 731q0 11 3 26l90 472q4 19 17.5 29.5t34.5 10.5h243q17 0 26 -9t9 -24t-7 -30l-207 -467q-16 -37 -46 -52.5 t-80 -15.5q-43 0 -63 14t-20 46z" />
<glyph unicode="&#x201e;" d="M131 -234q0 11 3 26l90 472q4 19 17.5 29.5t34.5 10.5h243q17 0 26 -9t9 -24t-7 -30l-207 -467q-16 -37 -46 -52.5t-80 -15.5q-43 0 -63 14t-20 46zM691 -234q0 11 3 26l90 472q4 19 17.5 29.5t34.5 10.5h243q17 0 26 -9t9 -24t-7 -30l-207 -467q-16 -37 -46 -52.5 t-80 -15.5q-43 0 -63 14t-20 46z" />
<glyph unicode="&#x2022;" d="M359 418v332q0 58 60 83t195 25t195 -25t60 -83v-332q0 -58 -60 -83t-195 -25t-195 25t-60 83z" />
<glyph unicode="&#x2026;" d="M89 53v174q0 34 29.5 48.5t95.5 14.5t95.5 -14.5t29.5 -48.5v-174q0 -34 -29.5 -48.5t-95.5 -14.5t-95.5 14.5t-29.5 48.5zM489 53v174q0 34 29.5 48.5t95.5 14.5t95.5 -14.5t29.5 -48.5v-174q0 -34 -29.5 -48.5t-95.5 -14.5t-95.5 14.5t-29.5 48.5zM889 53v174 q0 34 29.5 48.5t95.5 14.5t95.5 -14.5t29.5 -48.5v-174q0 -34 -29.5 -48.5t-95.5 -14.5t-95.5 14.5t-29.5 48.5z" />
<glyph unicode="&#x202f;" horiz-adv-x="359" />
<glyph unicode="&#x2039;" d="M354 536q0 15 9 25l279 366q15 19 40 19q35 0 92 -39q64 -43 64 -85q0 -20 -13 -36l-199 -250l199 -251q13 -16 13 -36q0 -42 -64 -85q-57 -39 -92 -39q-25 0 -40 19l-279 366q-9 12 -9 26z" />
<glyph unicode="&#x203a;" d="M390 249q0 20 13 36l199 251l-199 250q-13 16 -13 36q0 42 64 85q57 39 92 39q25 0 40 -19l279 -366q9 -10 9 -25q0 -14 -9 -26l-279 -366q-15 -19 -40 -19q-35 0 -92 39q-64 43 -64 85z" />
<glyph unicode="&#x205f;" horiz-adv-x="449" />
<glyph unicode="&#x20ac;" d="M80 434q0 58 14 78t49 20h75q-2 40 -2 62q0 21 2 61h-75q-35 0 -49 20t-14 77q0 58 14 78t49 20h110q54 171 180 265t301 94q191 0 357 -82q46 -22 46 -74q0 -27 -14 -69q-14 -43 -34.5 -63.5t-43.5 -20.5q-16 0 -30 7q-69 33 -134 49t-137 16t-125.5 -30.5t-87.5 -91.5 h244q35 0 49 -20t14 -78q0 -57 -14 -77t-49 -20h-295q-2 -38 -2 -61q0 -22 2 -62h295q35 0 49 -20t14 -78q0 -57 -14 -77t-49 -20h-243q68 -122 212 -122q72 0 137 16t134 49q14 7 30 7q23 0 43.5 -20.5t34.5 -63.5q14 -42 14 -69q0 -52 -46 -74q-166 -82 -357 -82 q-175 0 -300.5 94.5t-180.5 264.5h-110q-35 0 -49 20t-14 77z" />
<glyph unicode="&#x2122;" d="M50 1234q0 47 14 62.5t49 15.5h402q35 0 49 -15.5t14 -62.5t-13.5 -62t-49.5 -15h-121v-344q0 -36 -16 -50.5t-64 -14.5t-64 14.5t-16 50.5v344h-121q-36 0 -49.5 15t-13.5 62zM629 813l30 444q2 35 21 50t64 15q33 0 49 -6.5t25 -22.5l140 -256l140 256q9 16 25 22.5 t49 6.5q45 0 64 -15t21 -50l30 -444q2 -36 -13 -50.5t-60 -14.5t-63 15t-20 50l-10 217l-91 -165q-12 -23 -31.5 -35t-40.5 -12t-40.5 12t-31.5 35l-92 165l-9 -217q-2 -35 -20 -50t-63 -15t-60 14.5t-13 50.5z" />
<glyph unicode="&#x25fc;" horiz-adv-x="940" d="M0 0v940h940v-940h-940z" />
<glyph unicode="&#xfb01;" horiz-adv-x="2456" d="M167 751q0 66 14 89.5t49 23.5h183v73q0 186 91.5 283t265.5 97q152 0 304 -57q25 -9 37 -26t12 -46q0 -28 -10 -64q-13 -46 -31.5 -66.5t-42.5 -20.5q-13 0 -25 4q-127 39 -222 39q-63 0 -96 -37.5t-33 -118.5v-60h311q35 0 49 -23.5t14 -89.5t-14 -89t-49 -23h-311 v-576q0 -34 -14.5 -48.5t-48.5 -14.5h-124q-34 0 -48.5 14.5t-14.5 48.5v576h-183q-35 0 -49 23t-14 89zM1395 112q0 66 14 89.5t49 23.5h273v474h-213q-35 0 -49 23t-14 89t14 89.5t49 23.5h400q34 0 48.5 -14.5t14.5 -48.5v-636h281q35 0 49 -23.5t14 -89.5t-14 -89 t-49 -23h-804q-35 0 -49 23t-14 89zM1731 1136v164q0 35 26 49t96 14q71 0 99.5 -14.5t28.5 -48.5v-164q0 -34 -26.5 -48.5t-96.5 -14.5t-98.5 14.5t-28.5 48.5z" />
<glyph unicode="&#xfb02;" horiz-adv-x="2456" d="M167 751q0 66 14 89.5t49 23.5h183v73q0 186 91.5 283t265.5 97q152 0 304 -57q25 -9 37 -26t12 -46q0 -28 -10 -64q-13 -46 -31.5 -66.5t-42.5 -20.5q-13 0 -25 4q-127 39 -222 39q-63 0 -96 -37.5t-33 -118.5v-60h311q35 0 49 -23.5t14 -89.5t-14 -89t-49 -23h-311 v-576q0 -34 -14.5 -48.5t-48.5 -14.5h-124q-34 0 -48.5 14.5t-14.5 48.5v576h-183q-35 0 -49 23t-14 89zM1385 112q0 66 14 89.5t49 23.5h273v862h-233q-35 0 -49 23t-14 89t14 89.5t49 23.5h420q34 0 48.5 -14.5t14.5 -48.5v-1024h281q35 0 49 -23.5t14 -89.5t-14 -89 t-49 -23h-804q-35 0 -49 23t-14 89z" />
</font>
</defs>
</svg>
