<?xml version="1.0" standalone="no"?>
<!DOCTYPE svg PUBLIC "-//W3C//DTD SVG 1.1//EN" "http://www.w3.org/Graphics/SVG/1.1/DTD/svg11.dtd" >
<svg xmlns="http://www.w3.org/2000/svg">
<metadata></metadata>
<defs>
<font id="courier_prime_sansitalic" horiz-adv-x="1228" >
<font-face units-per-em="2048" ascent="1638" descent="-410" />
<missing-glyph horiz-adv-x="500" />
<glyph horiz-adv-x="0" />
<glyph horiz-adv-x="682" />
<glyph unicode=" " />
<glyph unicode="!" d="M433 43q0 6 1 10l27 154q6 34 35 48.5t94 14.5q62 0 92 -12.5t30 -39.5q0 -7 -1 -11l-27 -154q-6 -34 -34.5 -48.5t-93.5 -14.5q-62 0 -92.5 12.5t-30.5 40.5zM570 512l77 707q4 50 50 50h130q35 0 35 -29q0 -9 -3 -21l-174 -707q-5 -23 -22 -35.5t-43 -12.5t-39 12.5 t-11 35.5z" />
<glyph unicode="&#x22;" d="M382 769l24 450q3 50 50 50h164q35 0 35 -29q0 -9 -3 -21l-134 -450q-8 -26 -28 -40t-50 -14q-29 0 -44.5 14t-13.5 40zM842 769l24 450q3 50 50 50h164q35 0 35 -29q0 -9 -3 -21l-134 -450q-8 -26 -28 -40t-50 -14q-29 0 -44.5 14t-13.5 40z" />
<glyph unicode="#" d="M59 379q0 15 2 25q7 39 24.5 55.5t51.5 16.5h194l105 245h-186q-27 0 -40 11t-13 35q0 11 3 26q7 39 24.5 55.5t51.5 16.5h222l133 311q14 33 60 33q29 0 49.5 -13t20.5 -35q0 -10 -4 -19l-119 -277h254l133 311q14 33 60 33q29 0 49.5 -13t20.5 -35q0 -10 -4 -19 l-119 -277h156q27 0 40 -11t13 -35q0 -11 -3 -26q-7 -39 -24.5 -55.5t-51.5 -16.5h-192l-105 -245h184q27 0 40 -11t13 -35q0 -11 -3 -26q-7 -39 -24 -55.5t-51 -16.5h-220l-138 -321q-14 -33 -60 -33q-29 0 -49.5 13t-20.5 35q0 10 4 19l123 287h-253l-138 -321 q-14 -33 -60 -33q-29 0 -49.5 13t-20.5 35q0 10 4 19l123 287h-157q-28 0 -40.5 11t-12.5 36zM471 476h254l105 245h-254z" />
<glyph unicode="$" d="M161 271q0 21 15 48q26 48 60 48q15 0 32 -10q107 -66 247 -86l49 277q-91 11 -154 29q-72 22 -114 72.5t-42 129.5q0 82 45.5 151.5t137 112t222.5 43.5l28 161q6 34 25.5 49.5t56.5 15.5q31 0 45.5 -11t14.5 -34q0 -6 -2 -20l-30 -169q154 -19 265 -79q35 -19 35 -53 q0 -21 -13 -47q-26 -50 -61 -50q-12 0 -30 9q-95 55 -221 74l-45 -253q100 -9 168 -29q74 -22 117.5 -74t43.5 -136q0 -71 -40 -143.5t-136 -124t-252 -54.5l-31 -178q-6 -34 -25.5 -49.5t-56.5 -15.5q-31 0 -45.5 11t-14.5 34q0 6 2 20l32 184q-171 19 -294 94 q-34 21 -34 53zM414 795q0 -52 45.5 -72.5t129.5 -29.5l44 248q-72 -3 -121 -24t-73.5 -53.5t-24.5 -68.5zM654 264q88 3 142.5 29t77 61.5t22.5 68.5q0 40 -25 62.5t-65.5 32.5t-103.5 17z" />
<glyph unicode="%" d="M66 175q0 27 33 54l1020 830q26 22 49 22q24 0 45 -27q17 -22 17 -42q0 -27 -32 -53l-1021 -830q-26 -22 -49 -22q-26 0 -45 27q-17 22 -17 41zM122 900q0 83 39.5 153.5t110 113t159.5 42.5q68 0 123.5 -30.5t87.5 -85t32 -123.5q0 -83 -39.5 -153.5t-110 -113 t-159.5 -42.5q-68 0 -123.5 30.5t-87.5 85t-32 123.5zM254 909q0 -52 33 -85t90 -33q46 0 84 24t59.5 63t21.5 83q0 52 -33 85t-90 33q-46 0 -84 -24t-59.5 -63t-21.5 -83zM622 217q0 83 39.5 153.5t110 113t159.5 42.5q68 0 123.5 -30.5t87.5 -85t32 -123.5 q0 -83 -39.5 -153.5t-110 -113t-159.5 -42.5q-68 0 -123.5 30.5t-87.5 85t-32 123.5zM754 226q0 -52 33 -85t90 -33q46 0 84 24t59.5 63t21.5 83q0 52 -33 85t-90 33q-46 0 -84 -24t-59.5 -63t-21.5 -83z" />
<glyph unicode="&#x26;" d="M150 258q0 231 259 385q-63 96 -63 200q0 91 46 175.5t133.5 137.5t205.5 53q81 0 155 -22.5t133 -62.5q25 -16 25 -40q0 -22 -22 -56q-28 -42 -55 -42q-13 0 -30 10q-101 65 -223 65q-58 0 -106.5 -27t-77 -75t-28.5 -109q0 -77 53 -148l242 -327q59 91 120 225 q12 26 26.5 37.5t36.5 11.5q13 0 35 -5q30 -8 43 -18.5t13 -27.5q0 -14 -10 -37q-81 -185 -172 -312l116 -157q13 -17 13 -33q0 -28 -47 -54q-32 -18 -56 -18q-25 0 -43 24l-87 118q-156 -151 -343 -151q-92 0 -158 37.5t-100 101t-34 141.5zM304 274q0 -66 42 -107t112 -41 q126 0 240 122l-210 287q-84 -50 -134 -113.5t-50 -147.5z" />
<glyph unicode="'" d="M612 769l24 450q3 50 50 50h164q35 0 35 -29q0 -9 -3 -21l-134 -450q-8 -26 -28 -40t-50 -14q-29 0 -44.5 14t-13.5 40z" />
<glyph unicode="(" d="M304 362q0 210 81 408.5t225.5 356.5t329.5 248q12 5 19 5q16 0 30 -13t22 -33q10 -21 10 -47q0 -34 -20 -44q-169 -88 -293 -222t-190.5 -302.5t-66.5 -356.5q0 -200 80.5 -352t205.5 -245q9 -8 9 -21t-7.5 -29t-20.5 -30q-12 -13 -26 -21t-28 -8q-13 0 -23 7 q-90 61 -166.5 163t-123.5 239.5t-47 296.5z" />
<glyph unicode=")" d="M249 -250q0 34 20 44q169 88 293 222t190.5 302.5t66.5 356.5q0 200 -80.5 352t-205.5 245q-9 8 -9 21t7.5 29t20.5 30q12 13 26 21t28 8q13 0 23 -7q90 -61 166.5 -163t123.5 -239.5t47 -296.5q0 -210 -81 -408.5t-225.5 -356.5t-329.5 -248q-12 -5 -19 -5q-16 0 -30 13 t-22 33q-10 21 -10 47z" />
<glyph unicode="*" d="M276 862q0 24 13 51q28 62 74 62q18 0 40 -11l238 -121l11 276q2 42 29 66t73 24q37 0 57.5 -16t20.5 -45q0 -12 -5 -29l-86 -282l263 118q23 10 41 10q31 0 50.5 -23.5t19.5 -65.5q0 -35 -20.5 -58.5t-57.5 -30.5l-283 -48l154 -212q19 -27 19 -49q0 -38 -49 -67 q-27 -17 -52 -17q-42 0 -64 52l-95 238l-175 -243q-15 -21 -34.5 -32.5t-40.5 -11.5q-30 0 -56 22q-34 29 -34 64q0 36 33 64l233 203l-263 54q-54 11 -54 58z" />
<glyph unicode="+" d="M199 556q0 11 3 26q7 39 24.5 55.5t51.5 16.5h309l54 309q6 34 24 48.5t57 14.5q33 0 49 -10.5t16 -34.5q0 -4 -2 -18l-54 -309h309q27 0 40 -11t13 -35q0 -11 -3 -26q-7 -39 -24.5 -55.5t-51.5 -16.5h-309l-54 -309q-6 -34 -24 -48.5t-57 -14.5q-33 0 -49 10.5t-16 34.5 q0 4 2 18l54 309h-309q-27 0 -40 11t-13 35z" />
<glyph unicode="," d="M265 -254q0 9 5 26l173 482q7 19 22.5 29.5t36.5 10.5h192q16 0 25 -8t9 -22t-11 -33l-292 -484q-25 -41 -97 -41q-63 0 -63 40z" />
<glyph unicode="-" d="M199 556q0 11 3 26q7 39 24.5 55.5t51.5 16.5h762q27 0 40 -11t13 -35q0 -11 -3 -26q-7 -39 -24.5 -55.5t-51.5 -16.5h-762q-27 0 -40 11t-13 35z" />
<glyph unicode="." d="M417 43q0 7 1 10l33 184q6 34 37 48.5t101 14.5q67 0 100 -12.5t33 -40.5q0 -7 -1 -10l-33 -184q-6 -34 -37 -48.5t-101 -14.5q-67 0 -100 12.5t-33 40.5z" />
<glyph unicode="/" d="M82 -301q0 12 7 25l953 1638q18 32 68 32q36 0 57.5 -15.5t21.5 -38.5q0 -12 -7 -25l-953 -1638q-18 -32 -68 -32q-36 0 -57.5 15.5t-21.5 38.5z" />
<glyph unicode="0" d="M212 431q0 172 58.5 352.5t179 303t294.5 122.5q106 0 183 -56t117.5 -158t40.5 -239q0 -172 -58.5 -352.5t-179 -303t-294.5 -122.5q-106 0 -183 56t-117.5 158t-40.5 239zM363 426q0 -144 54 -222t149 -78q111 0 194.5 97.5t128.5 245t45 292.5q0 143 -54.5 221.5 t-148.5 78.5q-111 0 -194.5 -97.5t-128.5 -245t-45 -292.5z" />
<glyph unicode="1" d="M197 47q0 15 2 25q7 39 24.5 55.5t51.5 16.5h249l148 840l-268 -151q-16 -8 -29 -8q-32 0 -55 44q-13 25 -13 44q0 31 33 48l430 239q19 10 38 12h4q18 0 30 -11t12 -30q0 -9 -1 -14l-179 -1013h275q27 0 40 -11t13 -35q0 -11 -3 -26q-7 -39 -24 -55.5t-51 -16.5h-674 q-28 0 -40.5 11t-12.5 36z" />
<glyph unicode="2" d="M133 45q0 7 2 23q7 38 25 54l519 446q80 69 127.5 121t71 103t23.5 109q0 75 -50 117.5t-146 42.5q-66 0 -141 -22t-147 -63q-17 -10 -35 -10q-34 0 -54 42q-9 21 -9 39q0 37 40 60q83 50 177 76t184 26q102 0 179 -36t119 -103.5t42 -158.5q0 -82 -29 -150.5t-87 -134 t-156 -149.5l-388 -333h529q27 0 40 -11t13 -35q0 -11 -3 -26q-7 -39 -24 -55.5t-51 -16.5h-717q-28 0 -41 10.5t-13 34.5z" />
<glyph unicode="3" d="M147 147q0 23 18 50q13 20 29 33t32 13q17 0 32 -14q57 -48 130.5 -75.5t151.5 -27.5q103 0 170 38.5t97.5 98t30.5 122.5q0 83 -57 126.5t-161 43.5h-73q-28 0 -40.5 10.5t-12.5 34.5q0 5 2 23q7 37 24 52.5t51 15.5h55q96 0 156 32.5t86 83.5t26 110q0 68 -50.5 106 t-145.5 38q-140 0 -279 -73q-18 -8 -30 -8q-32 0 -52 44q-10 21 -10 40q0 37 41 59q80 43 169 64.5t176 21.5q104 0 179 -35.5t114.5 -99t39.5 -147.5q0 -102 -49 -180t-149 -122q69 -32 106 -93.5t37 -148.5q0 -95 -47 -187.5t-152 -155t-268 -62.5q-98 0 -192 34t-163 92 q-22 19 -22 43z" />
<glyph unicode="4" d="M139 352q0 15 2 24q6 32 20 49l612 723q26 32 53.5 46.5t65.5 14.5q77 0 77 -60q0 -6 -2 -18l-121 -685h162q27 0 40 -10.5t13 -34.5q0 -12 -3 -27q-7 -39 -24 -55.5t-51 -16.5h-162l-44 -247q-6 -35 -25.5 -50t-59.5 -15h-2q-35 0 -50 10.5t-15 34.5q0 4 2 20l44 247 h-478q-28 0 -41 12t-13 38zM357 446h339l102 535z" />
<glyph unicode="5" d="M157 141q0 24 21 55q29 43 57 43q14 0 30 -13q57 -46 128.5 -73t146.5 -27q104 0 175.5 47t106.5 120t35 150q0 89 -55 142t-152 53q-123 0 -232 -67q-13 -8 -25 -11t-30 -3q-35 0 -56 11t-17 31l113 523q8 35 27 50t60 15h534q27 0 40 -11t13 -35q0 -11 -3 -26 q-7 -39 -24.5 -55.5t-51.5 -16.5h-467l-66 -308q98 51 214 51q104 0 179 -43t114 -119.5t39 -176.5q0 -110 -52.5 -218t-161.5 -179.5t-268 -71.5q-95 0 -186.5 32t-161.5 87q-24 18 -24 44z" />
<glyph unicode="6" d="M215 352q0 247 104 437t294.5 299t443.5 121q25 1 39 -14t14 -53q0 -78 -48 -80q-268 -14 -434 -136t-231 -326q65 64 144 97.5t166 33.5q96 0 170.5 -39.5t116 -112t41.5 -166.5q0 -109 -54.5 -209t-159 -163t-245.5 -63q-122 0 -203 51t-119.5 135.5t-38.5 187.5z M367 319q0 -88 57 -140.5t158 -52.5q97 0 164.5 40.5t101 104.5t33.5 132q0 86 -52.5 133t-149.5 47q-82 0 -153.5 -32t-115 -92t-43.5 -140z" />
<glyph unicode="7" d="M322 1089q0 11 3 26q7 39 24.5 55.5t51.5 16.5h704q28 0 40.5 -10t12.5 -34q0 -15 -2 -24q-4 -22 -13 -40l-612 -1055q-14 -23 -38 -34.5t-51 -11.5q-29 0 -50 13t-21 35q0 16 9 30l578 987h-583q-27 0 -40 11t-13 35z" />
<glyph unicode="8" d="M194 290q0 120 71 208.5t187 136.5q-56 34 -89.5 89t-33.5 122q0 81 49.5 165.5t144.5 141t224 56.5q93 0 166.5 -38t114 -103t40.5 -145q0 -101 -57.5 -176t-153.5 -122q72 -35 113.5 -98t41.5 -143q0 -96 -54 -190t-159 -155t-249 -61q-104 0 -185 40.5t-126 111.5 t-45 160zM352 301q0 -52 26 -91.5t74.5 -61.5t113.5 -22q87 0 152.5 36t101 94.5t35.5 122.5q0 79 -58 127t-156 48q-88 0 -153.5 -36.5t-100.5 -95t-35 -121.5zM480 847q0 -44 23.5 -79t65.5 -55t97 -20q67 0 124.5 29.5t91.5 79.5t34 108q0 70 -51 110.5t-134 40.5 q-76 0 -133.5 -31t-87.5 -80.5t-30 -102.5z" />
<glyph unicode="9" d="M186 45q0 78 48 80q268 14 434 136t231 326q-65 -64 -144 -97.5t-166 -33.5q-96 0 -170.5 39.5t-116 112t-41.5 166.5q0 109 54.5 209t159 163t245.5 63q122 0 203 -51t119.5 -135.5t38.5 -187.5q0 -247 -104 -437t-294.5 -299t-443.5 -121q-25 -1 -39 14t-14 53z M415 784q0 -86 52.5 -133t149.5 -47q82 0 153.5 32t115 92t43.5 140q0 88 -57 140.5t-158 52.5q-97 0 -164.5 -40.5t-101 -104.5t-33.5 -132z" />
<glyph unicode=":" d="M417 43q0 7 1 10l33 184q6 34 37 48.5t101 14.5q67 0 100 -12.5t33 -40.5q0 -7 -1 -10l-33 -184q-6 -34 -37 -48.5t-101 -14.5q-67 0 -100 12.5t-33 40.5zM528 673q0 7 1 10l33 184q6 34 37 48.5t101 14.5q67 0 100 -12.5t33 -40.5q0 -7 -1 -10l-33 -184 q-6 -34 -37 -48.5t-101 -14.5q-67 0 -100 12.5t-33 40.5z" />
<glyph unicode=";" d="M305 -254q0 9 5 26l173 482q7 19 22.5 29.5t36.5 10.5h192q16 0 25 -8t9 -22t-11 -33l-292 -484q-25 -41 -97 -41q-63 0 -63 40zM528 673q0 7 1 10l33 184q6 34 37 48.5t101 14.5q67 0 100 -12.5t33 -40.5q0 -7 -1 -10l-33 -184q-6 -34 -37 -48.5t-101 -14.5 q-67 0 -100 12.5t-33 40.5z" />
<glyph unicode="&#x3c;" d="M155 565q0 6 2 18q5 26 18.5 43.5t38.5 29.5l845 381q19 8 32 8q21 0 35.5 -13.5t22.5 -38.5q6 -19 6 -36q0 -43 -47 -63l-722 -318l602 -315q32 -17 32 -44q0 -22 -20 -51q-31 -46 -67 -46q-16 0 -33 9l-710 381q-35 19 -35 55z" />
<glyph unicode="=" d="M164 356q0 11 3 26q7 39 24.5 55.5t51.5 16.5h762q27 0 40 -11t13 -35q0 -11 -3 -26q-7 -39 -24.5 -55.5t-51.5 -16.5h-762q-27 0 -40 11t-13 35zM234 756q0 11 3 26q7 39 24.5 55.5t51.5 16.5h762q27 0 40 -11t13 -35q0 -11 -3 -26q-7 -39 -24.5 -55.5t-51.5 -16.5h-762 q-27 0 -40 11t-13 35z" />
<glyph unicode="&#x3e;" d="M137 209q0 43 47 63l722 318l-602 315q-32 17 -32 44q0 22 20 51q31 46 67 46q16 0 33 -9l710 -381q35 -19 35 -55q0 -6 -2 -18q-5 -26 -18.5 -43.5t-38.5 -29.5l-845 -381q-19 -8 -32 -8q-21 0 -35.5 13.5t-22.5 38.5q-6 20 -6 36z" />
<glyph unicode="?" d="M386 1133q0 33 32 50q165 86 344 86q98 0 167.5 -33.5t106 -95t36.5 -143.5q0 -139 -94.5 -229t-287.5 -162l-36 -139q-12 -48 -75 -48q-62 0 -57 48l20 198q4 38 39 51l74 28q92 35 147 67.5t83 75.5t28 103q0 61 -42.5 96t-123.5 35q-125 0 -273 -65q-18 -8 -31 -8 q-29 0 -47 43q-10 24 -10 42zM407 42q0 7 1 11l20 114q6 34 33.5 48.5t87.5 14.5q56 0 83 -12t27 -39q0 -8 -1 -12l-20 -114q-6 -34 -33 -48.5t-87 -14.5q-56 0 -83.5 12.5t-27.5 39.5z" />
<glyph unicode="@" d="M38 270q0 200 96 387t264 304t372 117q133 0 230.5 -55t149.5 -154t52 -228q0 -128 -44 -244t-124.5 -188t-186.5 -72q-64 0 -103 33.5t-53 96.5q-59 -67 -113.5 -101t-115.5 -34q-66 0 -109 45.5t-43 125.5q0 94 60 208.5t153 194t185 79.5q86 0 110 -100l42 63 q9 12 27 12q14 0 33 -8q33 -13 33 -35q0 -7 -2 -11l-130 -302q-18 -44 -18 -77q0 -30 16 -47t45 -17q69 0 118.5 58.5t74.5 145t25 167.5q0 151 -86.5 236t-242.5 85q-165 0 -301 -101.5t-213.5 -258t-77.5 -313.5q0 -148 83 -230t240 -82q69 0 137.5 10t124.5 27q8 2 12 2 q25 0 34 -44q3 -14 3 -24q0 -32 -25 -42q-58 -24 -136 -38t-159 -14q-137 0 -235.5 51t-150 146.5t-51.5 225.5zM448 327q0 -31 14 -46t38 -15q59 0 115 58.5t92 137t36 128.5q0 33 -16 50.5t-45 17.5q-43 0 -99 -55.5t-95.5 -134t-39.5 -141.5z" />
<glyph unicode="A" d="M41 51q0 17 13 40l577 1053q19 35 48 50t76 15t70 -15t30 -50l211 -1081q3 -13 3 -23q0 -21 -14.5 -32.5t-50.5 -15.5q-20 -2 -28 -2q-29 0 -42 11.5t-18 39.5l-55 289h-505l-164 -302q-22 -41 -58 -41q-18 0 -47 13q-24 11 -35 23t-11 28zM432 474h401l-100 569h-4z" />
<glyph unicode="B" d="M144 46q0 14 2 22l186 1051q7 38 23 53t50 15h372q156 0 236.5 -73.5t80.5 -199.5q0 -108 -47.5 -181t-137.5 -121q76 -29 116.5 -93t40.5 -153q0 -100 -48.5 -183t-146.5 -133t-241 -50h-430q-29 0 -42.5 10.5t-13.5 35.5zM310 144h310q135 0 212 58t77 166 q0 163 -208 163h-323zM404 675h268q127 0 198 60.5t71 161.5q0 74 -46 110t-148 36h-279z" />
<glyph unicode="C" d="M170 453q0 196 78.5 370t222 280t329.5 106q180 0 339 -93q36 -21 36 -53q0 -20 -14 -48q-23 -45 -58 -45q-17 0 -31 10q-59 40 -133.5 60.5t-149.5 20.5q-138 0 -244 -86.5t-163.5 -225t-57.5 -288.5q0 -158 77 -246.5t213 -88.5q84 0 166.5 25t153.5 71q14 10 32 10 q34 0 57 -45q14 -28 14 -48q0 -32 -36 -53q-189 -108 -398 -108q-133 0 -231 58.5t-150 166t-52 250.5z" />
<glyph unicode="D" d="M114 46q0 14 2 22l186 1051q7 38 23 53t50 15h326q136 0 236.5 -56t154.5 -160.5t54 -246.5q0 -127 -42 -265.5t-128 -245.5q-79 -99 -192 -156t-262 -57h-352q-29 0 -42.5 10.5t-13.5 35.5zM280 144h230q117 0 205 45t149 124q65 84 97 193t32 213q0 160 -85.5 242 t-239.5 82h-230z" />
<glyph unicode="E" d="M164 46q0 14 2 22l186 1051q7 38 23 53t50 15h671q27 0 40 -11t13 -35q0 -11 -3 -26q-7 -39 -24.5 -55.5t-51.5 -16.5h-582l-63 -359h457q27 0 40 -10.5t13 -34.5q0 -12 -3 -27q-7 -39 -24 -55.5t-51 -16.5h-457l-70 -396h602q27 0 40 -11t13 -35q0 -11 -3 -26 q-7 -39 -24 -55.5t-51 -16.5h-687q-29 0 -42.5 10.5t-13.5 35.5z" />
<glyph unicode="F" d="M182 35q0 4 2 20l188 1064q7 38 23 53t50 15h671q27 0 40 -11t13 -35q0 -11 -3 -26q-7 -39 -24.5 -55.5t-51.5 -16.5h-582l-70 -399h467q27 0 40 -10.5t13 -34.5q0 -12 -3 -27q-7 -39 -24 -55.5t-51 -16.5h-468l-78 -445q-6 -35 -25.5 -50t-59.5 -15h-2q-35 0 -50 10.5 t-15 34.5z" />
<glyph unicode="G" d="M131 460q0 194 81.5 366.5t227.5 277.5t332 105q95 0 187 -23t172 -69q36 -21 36 -53q0 -20 -14 -48q-23 -45 -57 -45q-14 0 -32 10q-65 39 -144 59.5t-159 20.5q-145 0 -252.5 -88t-164 -225.5t-56.5 -282.5q0 -105 35.5 -181.5t102.5 -117t160 -40.5q175 0 309 57 l47 267h-267q-27 0 -40 10.5t-13 34.5q0 12 3 27q7 39 24 55.5t51 16.5h354q28 0 40.5 -10t12.5 -34q0 -15 -2 -24l-69 -392q-5 -24 -17 -42t-31 -27q-178 -87 -413 -87q-134 0 -234.5 59.5t-155 168.5t-54.5 254z" />
<glyph unicode="H" d="M112 35q0 4 2 20l190 1077q6 35 25.5 50t59.5 15h2q35 0 50 -10.5t15 -34.5q0 -4 -2 -20l-79 -448h578l79 448q6 35 25.5 50t59.5 15h2q35 0 50 -10.5t15 -34.5q0 -4 -2 -20l-190 -1077q-6 -35 -25.5 -50t-59.5 -15h-2q-35 0 -50 10.5t-15 34.5q0 4 2 20l86 485h-578 l-86 -485q-6 -35 -25.5 -50t-59.5 -15h-2q-35 0 -50 10.5t-15 34.5z" />
<glyph unicode="I" d="M150 47q0 15 2 25q7 39 24.5 55.5t51.5 16.5h266l158 899h-266q-27 0 -40 11t-13 35q0 11 3 26q7 39 24.5 55.5t51.5 16.5h662q27 0 40 -11t13 -35q0 -11 -3 -26q-7 -39 -24.5 -55.5t-51.5 -16.5h-246l-158 -899h286q27 0 40 -11t13 -35q0 -11 -3 -26q-7 -39 -24 -55.5 t-51 -16.5h-702q-28 0 -40.5 11t-12.5 36z" />
<glyph unicode="J" d="M144 139q0 25 21 56q27 41 55 41q15 0 33 -14q55 -46 124.5 -71t146.5 -25q115 0 184.5 60.5t89.5 176.5l119 680h-361q-27 0 -40 11t-13 35q0 11 3 26q7 39 24.5 55.5t51.5 16.5h448q27 0 40 -11t13 -35q0 -11 -3 -26l-138 -782q-30 -172 -139 -263.5t-286 -91.5 q-101 0 -192 29.5t-155 84.5q-26 21 -26 47z" />
<glyph unicode="K" d="M152 35q0 4 2 20l190 1077q6 35 25.5 50t59.5 15h2q35 0 50 -10.5t15 -34.5q0 -4 -2 -20l-95 -537l667 596q20 18 44 18q28 0 57 -22q34 -25 34 -49q0 -21 -26 -44l-485 -433l334 -569q10 -17 10 -33t-11.5 -30.5t-35.5 -28.5q-29 -17 -52 -17q-28 0 -41 23l-322 549 l-213 -191l-55 -309q-6 -35 -25.5 -50t-59.5 -15h-2q-35 0 -50 10.5t-15 34.5z" />
<glyph unicode="L" d="M184 46q0 14 2 22l188 1064q6 35 25.5 50t59.5 15h2q35 0 50 -10.5t15 -34.5q0 -4 -2 -20l-174 -988h582q27 0 40 -11t13 -35q0 -11 -3 -26q-7 -39 -24 -55.5t-51 -16.5h-667q-29 0 -42.5 10.5t-13.5 35.5z" />
<glyph unicode="M" d="M82 36q0 5 2 19l220 1077q7 36 27 50.5t57 14.5h2q35 0 53 -15t28 -50l165 -570l365 570q22 34 48.5 49.5t61.5 15.5h2q34 0 52 -11.5t18 -38.5q0 -10 -1 -15l-160 -1077q-5 -35 -23.5 -50t-58.5 -15h-2q-36 0 -51.5 11t-15.5 36q0 4 2 18l123 813l-286 -446 q-23 -35 -45 -49.5t-56 -14.5t-53.5 14.5t-29.5 49.5l-128 446l-165 -813q-7 -36 -24.5 -50.5t-58.5 -14.5h-2q-34 0 -50 11t-16 35z" />
<glyph unicode="N" d="M112 34q0 5 2 21l190 1077q6 35 25.5 50t61.5 15h27q45 0 57 -28l407 -892h4l150 855q6 35 25.5 50t57.5 15h2q34 0 48.5 -10.5t14.5 -33.5q0 -5 -2 -21l-193 -1095q-5 -27 -26 -43t-59 -16q-27 0 -44.5 14t-30.5 41l-410 898h-4l-155 -876q-6 -35 -25.5 -50t-57.5 -15 h-2q-34 0 -48.5 10.5t-14.5 33.5z" />
<glyph unicode="O" d="M114 459q0 135 39.5 266t115.5 236q83 116 203 182t270 66q134 0 234 -59.5t153.5 -168.5t53.5 -253q0 -135 -39.5 -266t-115.5 -236q-83 -116 -203 -182t-270 -66q-134 0 -234 59.5t-153.5 168.5t-53.5 253zM267 465q0 -105 36 -181.5t103 -117t160 -40.5q105 0 190 49 t146 134q62 86 95 195t33 218q0 105 -36 181.5t-103 117t-160 40.5q-105 0 -190 -49t-146 -134q-62 -86 -95 -195t-33 -218z" />
<glyph unicode="P" d="M172 35q0 4 2 20l188 1064q7 38 23 53t50 15h365q123 0 210 -41t132 -115t45 -172q0 -119 -53 -225t-167 -173.5t-286 -67.5h-297l-60 -338q-6 -35 -25.5 -50t-59.5 -15h-2q-35 0 -50 10.5t-15 34.5zM409 537h271q123 0 202 43.5t115 113t36 150.5q0 97 -66.5 148 t-199.5 51h-269z" />
<glyph unicode="Q" d="M114 459q0 135 39.5 266t115.5 236q83 116 203 182t270 66q134 0 234 -59.5t153.5 -168.5t53.5 -253q0 -135 -39.5 -266t-115.5 -236q-72 -100 -169 -162l59 -130q9 -20 9 -36t-12 -29t-38 -25q-27 -12 -45 -12q-17 0 -29 9.5t-21 30.5l-59 130q-78 -24 -168 -24 q-134 0 -234 59.5t-153.5 168.5t-53.5 253zM267 465q0 -105 36 -181.5t103 -117t160 -40.5q48 0 95 11l-80 174q-9 20 -9 35q0 17 12 30.5t38 25.5q29 13 45 13q31 0 50 -42l79 -172q58 41 106 108q62 86 95 195t33 218q0 105 -36 181.5t-103 117t-160 40.5q-105 0 -190 -49 t-146 -134q-62 -86 -95 -195t-33 -218z" />
<glyph unicode="R" d="M172 35q0 4 2 20l188 1064q7 38 23 53t50 15h305q118 0 202.5 -37.5t128 -105t43.5 -156.5q0 -147 -83 -248.5t-248 -147.5l195 -406q10 -22 10 -35q0 -15 -11.5 -27.5t-37.5 -23.5q-33 -15 -52 -15q-25 0 -39 29l-218 459h-232l-74 -418q-6 -35 -25.5 -50t-59.5 -15h-2 q-35 0 -50 10.5t-15 34.5zM423 617h208q161 0 245 67.5t84 187.5q0 83 -62.5 127t-180.5 44h-219z" />
<glyph unicode="S" d="M127 144q0 22 18 53q27 45 57 45q15 0 28 -10q70 -50 163 -78t191 -28q102 0 172.5 31.5t105.5 85t35 118.5q0 92 -92 134q-35 16 -78 27.5t-116 27.5q-67 14 -117.5 27.5t-93.5 31.5q-152 65 -152 224q0 91 50 177.5t152.5 142.5t253.5 56q228 0 399 -100q33 -20 33 -49 q0 -20 -17 -52q-26 -48 -57 -48q-16 0 -29 9q-70 42 -161.5 67t-186.5 25q-89 0 -151.5 -30.5t-94 -79.5t-31.5 -104q0 -44 24 -70.5t75 -44.5q30 -10 71.5 -19.5t82.5 -18.5q85 -18 140 -32.5t105 -37.5q71 -32 111 -95t40 -149q0 -102 -48.5 -193t-158 -150t-282.5 -59 q-115 0 -223.5 30.5t-187.5 85.5q-30 21 -30 50z" />
<glyph unicode="T" d="M235 1089q0 11 3 26q7 39 24.5 55.5t51.5 16.5h858q27 0 40 -11t13 -35q0 -11 -3 -26q-7 -39 -24.5 -55.5t-51.5 -16.5h-344l-174 -988q-6 -35 -25.5 -50t-59.5 -15h-2q-35 0 -50 10.5t-15 34.5q0 4 2 20l174 988h-364q-27 0 -40 11t-13 35z" />
<glyph unicode="U" d="M168 316q0 48 11 109l125 707q6 35 25.5 50t59.5 15h2q35 0 50 -10.5t15 -34.5q0 -4 -2 -20l-123 -697q-10 -60 -10 -96q0 -112 61.5 -162.5t184.5 -50.5q147 0 230 71.5t112 235.5l123 699q6 35 25.5 50t59.5 15h2q35 0 50 -10.5t15 -34.5q0 -4 -2 -20l-129 -728 q-39 -220 -164 -323t-334 -103q-182 0 -284.5 86t-102.5 252z" />
<glyph unicode="V" d="M223 1147q0 21 15 32.5t51 15.5q20 2 28 2q28 0 41.5 -11.5t18.5 -39.5l190 -964l535 977q22 41 57 41q18 0 47 -13q23 -11 34 -23t11 -27q0 -18 -13 -41l-582 -1053q-19 -35 -47 -50t-71 -15t-66 15t-30 50l-216 1081q-3 12 -3 23z" />
<glyph unicode="W" d="M154 43l42 1093q2 34 16.5 47t57.5 13q44 0 59.5 -13.5t13.5 -49.5l-43 -875l310 587q11 20 29 30t50 10q63 0 69 -40l104 -587l268 883q9 30 24 43.5t42 13.5q14 0 30 -3q30 -5 43.5 -16t13.5 -30q0 -15 -8 -39l-335 -1067q-11 -36 -33 -50.5t-61 -14.5q-80 0 -92 65 l-104 586l-310 -586q-18 -34 -44 -49.5t-64 -15.5q-40 0 -59.5 15t-18.5 50z" />
<glyph unicode="X" d="M93 48q0 21 23 49l449 519l-250 486q-9 18 -9 31q0 16 12.5 28.5t39.5 25.5q34 17 53 17q14 0 24 -8t19 -26l219 -444l372 452q24 30 55 30q24 0 58 -21t34 -48q0 -21 -23 -49l-421 -494l268 -511q9 -18 9 -31q0 -16 -12.5 -28.5t-39.5 -25.5q-34 -17 -53 -17 q-14 0 -24 8t-19 26l-236 473l-401 -481q-24 -30 -55 -30q-24 0 -58 21t-34 48z" />
<glyph unicode="Y" d="M261 1135q0 16 12.5 28.5t40.5 23.5q26 11 46 11q16 0 26 -8t18 -25l245 -523l434 530q24 30 56 30q23 0 48 -15q40 -24 40 -51q0 -20 -21 -46l-502 -604l-76 -431q-6 -35 -25.5 -50t-59.5 -15h-2q-35 0 -50 10.5t-15 34.5q0 4 2 20l78 444l-285 602q-10 22 -10 34z" />
<glyph unicode="Z" d="M116 44q0 15 2 24q4 21 22 43l777 932h-558q-27 0 -40 11t-13 35q0 11 3 26q7 39 24.5 55.5t51.5 16.5h720q28 0 41.5 -10.5t13.5 -34.5q0 -14 -2 -23q-4 -23 -17 -39l-782 -936h602q27 0 40 -11t13 -35q0 -11 -3 -26q-7 -39 -24 -55.5t-51 -16.5h-766q-28 0 -41 10 t-13 34z" />
<glyph unicode="[" d="M211 -289q0 15 2 24l277 1569q7 37 24 52.5t51 15.5h414q27 0 40 -11t13 -35q0 -11 -3 -26q-7 -39 -24.5 -55.5t-51.5 -16.5h-327l-249 -1417h327q27 0 40 -11t13 -35q0 -11 -3 -26q-7 -39 -24.5 -55.5t-51.5 -16.5h-414q-28 0 -40.5 10t-12.5 34z" />
<glyph unicode="\" d="M370 1339q0 24 26.5 39.5t58.5 15.5q21 0 36.5 -7.5t19.5 -22.5l388 -1655q1 -3 1 -9q0 -24 -27 -39.5t-59 -15.5q-21 0 -36 7.5t-19 22.5l-388 1655q-1 3 -1 9z" />
<glyph unicode="]" d="M239 -287q0 11 3 26q7 39 24.5 55.5t51.5 16.5h327l249 1417h-327q-27 0 -40 11t-13 35q0 11 3 26q7 39 24.5 55.5t51.5 16.5h414q28 0 40.5 -10t12.5 -34q0 -15 -2 -24l-277 -1569q-7 -37 -24 -52.5t-51 -15.5h-414q-27 0 -40 11t-13 35z" />
<glyph unicode="^" d="M260 554q0 13 10 27l412 591q14 19 30.5 28t44.5 9t41 -9t20 -28l204 -591q3 -7 3 -15q0 -18 -15.5 -33t-38.5 -23q-20 -7 -42 -7q-39 0 -47 24l-154 480l-320 -480q-8 -13 -24.5 -19t-36.5 -6q-18 0 -36 5q-22 6 -36.5 18.5t-14.5 28.5z" />
<glyph unicode="_" d="M-60 -368q0 15 6 47q7 42 15.5 57t20.5 15h1237q8 0 11.5 -5.5t3.5 -19.5q0 -21 -5 -47q-8 -43 -16 -57.5t-20 -14.5h-1237q-8 0 -12 5.5t-4 19.5z" />
<glyph unicode="`" d="M443 1306q0 29 30 68q33 41 67 41q19 0 37 -13l348 -256q16 -12 16 -31q0 -25 -24 -52q-22 -25 -46 -25q-14 0 -32 10l-374 219q-22 13 -22 39z" />
<glyph unicode="a" d="M143 366q0 138 57.5 271.5t172.5 221t278 87.5q93 0 166 -48t119 -132l19 103q6 36 22.5 50.5t55.5 14.5h2q33 0 47.5 -10.5t14.5 -33.5q0 -5 -2 -21l-104 -590q-4 -19 -4 -40q0 -47 23 -71t63 -24h5q28 0 40.5 -11t12.5 -36q0 -15 -2 -25q-8 -39 -25 -55.5t-51 -16.5 h-11q-80 0 -129 46.5t-53 131.5q-72 -99 -160 -149.5t-198 -50.5q-104 0 -185.5 47.5t-127.5 135.5t-46 205zM296 375q0 -114 60 -181.5t168 -67.5q100 0 181.5 60.5t128 156.5t46.5 198q0 121 -63.5 189t-171.5 68q-105 0 -184.5 -61t-122 -159t-42.5 -203z" />
<glyph unicode="b" d="M129 34q0 5 2 21l212 1202q6 35 25.5 50t59.5 15h2q35 0 50 -10.5t15 -34.5q0 -4 -2 -20l-80 -455q71 70 154.5 107t177.5 37q107 0 189 -47.5t127.5 -135t45.5 -205.5q0 -138 -57 -272t-173 -221t-282 -87q-101 0 -178.5 46.5t-126.5 133.5l-19 -103q-6 -36 -22.5 -50.5 t-55.5 -14.5h-2q-33 0 -47.5 10.5t-14.5 33.5zM346 383q0 -121 69 -189t186 -68q108 0 188 61t122.5 158.5t42.5 203.5q0 114 -61 181.5t-174 67.5q-114 0 -198.5 -59t-129.5 -154.5t-45 -201.5z" />
<glyph unicode="c" d="M154 380q0 148 71.5 278t200.5 209t294 79q95 0 188 -28.5t168 -82.5q38 -27 38 -62q0 -21 -13 -44q-23 -40 -56 -40q-17 0 -37 13q-64 47 -142 71.5t-157 24.5q-112 0 -203.5 -56t-144 -150t-52.5 -201q0 -78 32.5 -138t94 -93.5t145.5 -33.5q88 0 176.5 23.5 t162.5 66.5q19 11 36 11q35 0 56 -44q12 -24 12 -43q0 -37 -41 -59q-85 -48 -197 -75.5t-221 -27.5q-126 0 -219 52t-142.5 143.5t-49.5 206.5z" />
<glyph unicode="d" d="M143 366q0 138 57 272t173 221t282 87q99 0 175 -44t123 -125l84 480q6 35 25.5 50t59.5 15h2q35 0 50 -10.5t15 -34.5q0 -4 -2 -20l-212 -1202q-6 -36 -22.5 -50.5t-55.5 -14.5h-2q-33 0 -47.5 10.5t-14.5 33.5q0 5 2 21l14 79q-151 -156 -344 -156q-107 0 -189 47.5 t-127.5 135t-45.5 205.5zM296 375q0 -114 61 -181.5t174 -67.5q114 0 198.5 59t129.5 154.5t45 201.5q0 121 -69 189t-186 68q-108 0 -188 -61t-122.5 -158.5t-42.5 -203.5z" />
<glyph unicode="e" d="M154 354q0 164 72 299.5t201.5 214t295.5 78.5q109 0 190 -37.5t124.5 -104t43.5 -149.5q0 -220 -224 -244l-551 -57q2 -118 67.5 -174.5t184.5 -56.5q96 0 195 25.5t180 66.5q16 7 25 7q38 0 56 -56q6 -21 6 -36q0 -23 -11.5 -38t-35.5 -26q-89 -39 -203.5 -63.5 t-226.5 -24.5q-124 0 -211.5 45.5t-132.5 130t-45 200.5zM322 492l504 58q56 6 78.5 30t22.5 70q0 43 -25 77t-74.5 54t-119.5 20q-101 0 -180.5 -39.5t-131.5 -109.5t-74 -160z" />
<glyph unicode="f" d="M-103 -277q0 23 18 51q28 42 57 42q15 0 31 -11q92 -69 206 -69q82 0 130.5 45.5t65.5 140.5l137 778h-198q-27 0 -40 10.5t-13 34.5q0 12 3 27q7 39 24 55.5t51 16.5h198l22 123q30 166 134 258t270 92q134 0 257 -51q43 -19 43 -58q0 -14 -6 -34q-19 -55 -57 -55 q-10 0 -25 5q-117 47 -228 47q-202 0 -240 -217l-19 -110h345q28 0 40.5 -11t12.5 -36q0 -15 -2 -25q-8 -39 -25 -55.5t-51 -16.5h-346l-139 -791q-27 -153 -118 -236t-239 -83q-152 0 -272 86q-27 19 -27 47z" />
<glyph unicode="g" d="M76 -289q0 19 9 43q21 55 58 55q14 0 24 -5q73 -32 159 -49t170 -17q135 0 216.5 66t100.5 179l32 185q-73 -71 -154 -105.5t-178 -34.5q-107 0 -190 45.5t-128.5 130t-45.5 196.5q0 145 62 270t179 200.5t275 75.5q99 0 174 -47t121 -133l19 103q6 36 22.5 50.5 t55.5 14.5h2q33 0 47.5 -10.5t14.5 -33.5q0 -5 -2 -21l-161 -909q-32 -179 -154.5 -274.5t-323.5 -95.5t-368 70q-36 14 -36 51zM302 412q0 -108 62 -172t176 -64q118 0 201 56.5t125 144.5t42 179q0 114 -70.5 178t-188.5 64q-107 0 -186 -55.5t-120 -144t-41 -186.5z" />
<glyph unicode="h" d="M139 35q0 4 2 20l212 1202q6 35 25.5 50t59.5 15h2q35 0 50 -10.5t15 -34.5q0 -4 -2 -20l-93 -526q84 97 192 156t211 59q85 0 147 -32t95 -90.5t33 -137.5q0 -38 -7 -76l-98 -555q-6 -35 -25.5 -50t-59.5 -15h-2q-35 0 -50 10.5t-15 34.5q0 4 2 20l97 550q5 32 5 54 q0 66 -38 102.5t-115 36.5q-86 0 -179 -54.5t-163 -148t-89 -203.5l-60 -337q-6 -35 -25.5 -50t-59.5 -15h-2q-35 0 -50 10.5t-15 34.5z" />
<glyph unicode="i" d="M244 826q0 11 3 26q7 39 24 55.5t51 16.5h338q28 0 41.5 -10.5t13.5 -34.5q0 -14 -2 -23l-96 -546q-7 -42 -7 -66q0 -63 32 -91.5t102 -28.5q106 0 218 34q16 4 22 4q41 0 53 -57q3 -15 3 -28q0 -25 -12 -39.5t-38 -22.5q-135 -37 -261 -37q-129 0 -199 66.5t-70 184.5 q0 40 7 78l83 473h-253q-27 0 -40 11t-13 35zM576 1149q0 5 2 19l23 130q6 36 29 50.5t78 14.5q47 0 66 -10.5t19 -35.5q0 -5 -2 -19l-23 -130q-6 -36 -28.5 -50.5t-77.5 -14.5q-48 0 -67 10.5t-19 35.5z" />
<glyph unicode="j" d="M83 -250q0 21 17 51q26 44 58 44q18 0 33 -12q62 -44 131.5 -70.5t136.5 -26.5q98 0 147 53t69 167l145 824h-423q-27 0 -40 11t-13 35q0 11 3 26q7 39 24 55.5t51 16.5h510q28 0 40.5 -10t12.5 -34q0 -15 -2 -24l-160 -913q-31 -177 -121 -265t-259 -88 q-83 0 -172.5 31.5t-159.5 81.5q-28 20 -28 47zM846 1149q0 5 2 19l23 130q6 36 29 50.5t78 14.5q47 0 66 -10.5t19 -35.5q0 -5 -2 -19l-23 -130q-6 -36 -28.5 -50.5t-77.5 -14.5q-48 0 -67 10.5t-19 35.5z" />
<glyph unicode="k" d="M169 35q0 4 2 20l212 1202q6 35 25.5 50t59.5 15h2q35 0 50 -10.5t15 -34.5q0 -4 -2 -20l-140 -795l598 462q23 18 51 18t54 -18q40 -27 40 -52q0 -20 -25 -39l-416 -317l314 -425q14 -19 14 -33q0 -28 -47 -53q-32 -18 -55 -18q-25 0 -43 24l-302 414l-219 -167 l-36 -203q-6 -35 -25.5 -50t-59.5 -15h-2q-35 0 -50 10.5t-15 34.5z" />
<glyph unicode="l" d="M272 1214q0 11 3 26q7 39 24.5 55.5t51.5 16.5h358q28 0 41.5 -10.5t13.5 -34.5q0 -14 -2 -23l-165 -934q-7 -44 -7 -67q0 -62 32.5 -90.5t101.5 -28.5q106 0 218 34q16 4 22 4q41 0 53 -57q3 -15 3 -28q0 -25 -12 -39.5t-38 -22.5q-135 -37 -261 -37q-129 0 -199 66.5 t-70 184.5q0 40 7 78l151 861h-273q-27 0 -40 11t-13 35z" />
<glyph unicode="m" d="M58 35q0 4 2 20l144 814q6 36 21.5 50.5t51.5 14.5h2q31 0 44 -10t13 -33q0 -6 -2 -22l-20 -112q55 93 122.5 141t131.5 48q67 0 110.5 -47t47.5 -134q55 90 123.5 135.5t135.5 45.5q50 0 90.5 -24t64 -70.5t23.5 -111.5q0 -36 -7 -72l-108 -613q-6 -35 -25.5 -50 t-59.5 -15h-2q-35 0 -50 10.5t-15 34.5q0 4 2 20l107 605q5 32 5 52q0 86 -76 86q-47 0 -95.5 -48t-87 -131t-55.5 -182l-67 -382q-6 -35 -25.5 -50t-59.5 -15h-2q-35 0 -50 10.5t-15 34.5q0 4 2 20l107 605q5 32 5 52q0 86 -76 86q-47 0 -95.5 -48t-87 -131t-55.5 -182 l-67 -382q-6 -35 -25.5 -50t-59.5 -15h-2q-35 0 -50 10.5t-15 34.5z" />
<glyph unicode="n" d="M139 35q0 4 2 20l144 814q6 36 22.5 50.5t55.5 14.5h2q33 0 47.5 -10.5t14.5 -33.5q0 -5 -2 -21l-27 -153q84 103 196 166.5t219 63.5q85 0 147 -32t95 -90.5t33 -137.5q0 -38 -7 -76l-98 -555q-6 -35 -25.5 -50t-59.5 -15h-2q-35 0 -50 10.5t-15 34.5q0 4 2 20l97 550 q5 32 5 54q0 66 -38 102.5t-115 36.5q-86 0 -179 -54.5t-163 -148t-89 -203.5l-60 -337q-6 -35 -25.5 -50t-59.5 -15h-2q-35 0 -50 10.5t-15 34.5z" />
<glyph unicode="o" d="M140 386q0 147 69.5 276t195 206.5t285.5 77.5q123 0 218.5 -52.5t148.5 -145.5t53 -210q0 -147 -69.5 -276t-195 -206.5t-285.5 -77.5q-123 0 -218.5 52.5t-148.5 145.5t-53 210zM293 394q0 -80 33.5 -140.5t97.5 -94t152 -33.5q108 0 195.5 56t136.5 149t49 199 q0 80 -33.5 140.5t-97.5 94t-152 33.5q-108 0 -195.5 -56t-136.5 -149t-49 -199z" />
<glyph unicode="p" d="M61 -353q0 4 2 20l212 1202q6 36 22.5 50.5t55.5 14.5h2q33 0 47.5 -10.5t14.5 -33.5q0 -5 -2 -21l-14 -79q151 156 344 156q107 0 189 -47.5t127.5 -135t45.5 -205.5q0 -138 -57 -272t-173 -221t-282 -87q-98 0 -174 43.5t-123 124.5l-85 -479q-6 -35 -25.5 -50 t-59.5 -15h-2q-35 0 -50 10.5t-15 34.5zM346 383q0 -121 69 -189t186 -68q108 0 188 61t122.5 158.5t42.5 203.5q0 114 -61 181.5t-174 67.5q-114 0 -198.5 -59t-129.5 -154.5t-45 -201.5z" />
<glyph unicode="q" d="M143 366q0 138 57 272t173 221t282 87q101 0 178.5 -46.5t126.5 -133.5l19 103q6 36 22.5 50.5t55.5 14.5h2q33 0 47.5 -10.5t14.5 -33.5q0 -5 -2 -21l-212 -1202q-6 -35 -25.5 -50t-59.5 -15h-2q-35 0 -50 10.5t-15 34.5q0 4 2 20l80 455q-71 -70 -154.5 -107 t-177.5 -37q-107 0 -189 47.5t-127.5 135t-45.5 205.5zM296 375q0 -114 61 -181.5t174 -67.5q114 0 198.5 59t129.5 154.5t45 201.5q0 121 -69 189t-186 68q-108 0 -188 -61t-122.5 -158.5t-42.5 -203.5z" />
<glyph unicode="r" d="M244 35q0 4 2 20l144 814q6 36 22.5 50.5t55.5 14.5h2q33 0 47.5 -10.5t14.5 -33.5q0 -5 -2 -21l-40 -220q113 143 241 220t261 77q64 0 127 -21q40 -14 40 -55q0 -15 -7 -41q-18 -65 -59 -65q-11 0 -22 4q-52 18 -107 18q-115 0 -228.5 -70t-195.5 -188.5t-106 -257.5 l-38 -215q-6 -35 -25.5 -50t-59.5 -15h-2q-35 0 -50 10.5t-15 34.5z" />
<glyph unicode="s" d="M136 131q0 21 15 48q26 48 60 48q15 0 32 -10q74 -46 166 -70t194 -24q98 0 158 26t85 62.5t25 71.5q0 76 -108 99q-53 11 -161 21q-73 6 -121.5 12.5t-95.5 21.5q-72 22 -114 72.5t-42 129.5q0 83 46 153t138.5 112t224.5 42q238 0 399 -87q35 -19 35 -53q0 -21 -13 -47 q-26 -50 -61 -50q-12 0 -30 9q-72 41 -158.5 62t-180.5 21q-79 0 -133 -20.5t-80.5 -54t-26.5 -71.5q0 -71 109 -92q60 -12 156 -19q79 -8 124.5 -14t91.5 -20q74 -22 117.5 -74t43.5 -136q0 -73 -41.5 -146.5t-140.5 -124.5t-261 -51q-256 0 -418 100q-34 21 -34 53z" />
<glyph unicode="t" d="M180 745q0 12 3 27q7 39 24 55.5t51 16.5h203l53 300q6 35 25 50t60 15q35 0 51 -11t16 -35q0 -5 -2 -19l-53 -300h411q28 0 40.5 -11t12.5 -36q0 -15 -2 -25q-8 -39 -25 -55.5t-51 -16.5h-411l-63 -356q-9 -46 -9 -83q0 -70 34.5 -103.5t112.5 -33.5q66 0 144.5 27.5 t156.5 73.5q15 9 30 9q16 0 30 -12t23 -36q8 -20 8 -40q0 -35 -38 -56q-88 -50 -186 -81t-183 -31q-143 0 -213 66.5t-70 192.5q0 42 10 104l63 359h-203q-27 0 -40 10.5t-13 34.5z" />
<glyph unicode="u" d="M162 238q0 38 7 76l98 555q6 35 25.5 50t59.5 15h2q35 0 50 -10.5t15 -34.5q0 -4 -2 -20l-97 -550q-5 -32 -5 -54q0 -66 38 -102.5t115 -36.5q86 0 179 54.5t163 148t89 203.5l60 337q6 35 25.5 50t59.5 15h2q35 0 50 -10.5t15 -34.5q0 -4 -2 -20l-144 -814 q-6 -36 -22.5 -50.5t-55.5 -14.5h-2q-33 0 -47.5 10.5t-14.5 33.5q0 5 2 21l27 153q-84 -103 -196 -166.5t-219 -63.5q-85 0 -147 32t-95 90.5t-33 137.5z" />
<glyph unicode="v" d="M203 867q0 21 14 34.5t47 22.5q25 7 44 7t30 -9.5t17 -31.5l207 -747l474 755q13 20 25.5 29.5t28.5 9.5q18 0 47 -13q47 -23 47 -52q0 -18 -15 -42l-500 -790q-21 -33 -50.5 -47.5t-78.5 -14.5t-73.5 14.5t-33.5 47.5l-226 800q-4 13 -4 27z" />
<glyph unicode="w" d="M140 864v8q0 32 15 44q17 14 67 14q33 0 45.5 -12t14.5 -45l40 -663l269 533q24 47 87 47q33 0 50.5 -13t20.5 -34l81 -533l277 673q11 26 24.5 38t35.5 12q19 0 35 -5q28 -7 39.5 -17.5t11.5 -27.5q0 -16 -11 -41l-338 -799q-15 -36 -35 -50.5t-58 -14.5 q-43 0 -64.5 15.5t-26.5 49.5l-79 512l-259 -512q-17 -35 -42 -50t-67 -15q-38 0 -55.5 15t-19.5 50z" />
<glyph unicode="x" d="M107 46q0 21 22 43l398 388l-253 358q-13 17 -13 35q0 33 50 54q34 15 55 15q14 0 24.5 -7t21.5 -23l233 -332l339 332q30 30 64 30q25 0 55 -15q40 -19 40 -47q0 -20 -23 -42l-382 -371l263 -375q12 -18 12 -34q0 -34 -49 -55q-36 -15 -55 -15q-14 0 -24.5 7t-21.5 23 l-243 351l-355 -351q-30 -30 -65 -30q-24 0 -54 15q-39 19 -39 46z" />
<glyph unicode="y" d="M201 868q0 21 14.5 34.5t47.5 21.5q30 7 43 7q18 0 28.5 -9.5t18.5 -31.5l220 -679l462 687q14 20 26.5 29.5t28.5 9.5q17 0 46 -13q24 -12 36 -24.5t12 -28.5q0 -17 -16 -41l-808 -1194q-27 -39 -58 -39q-20 0 -46 15q-21 12 -31.5 25t-10.5 28q0 18 17 44l233 342 l-258 789q-5 17 -5 28z" />
<glyph unicode="z" d="M127 45q0 7 2 23q5 29 22 45l694 667h-527q-27 0 -40 11t-13 35q0 11 3 26q7 39 24 55.5t51 16.5h716q28 0 40.5 -10.5t12.5 -35.5q0 -6 -2 -22q-4 -29 -23 -46l-692 -666h557q27 0 40 -11t13 -35q0 -11 -3 -26q-7 -39 -24 -55.5t-51 -16.5h-746q-28 0 -41 10.5t-13 34.5 z" />
<glyph unicode="{" d="M200 519q0 6 2 22q5 39 22.5 55.5t51.5 16.5q286 0 320 272l11 90q25 206 144.5 301.5t333.5 95.5q29 0 42.5 -12t13.5 -39q0 -5 -2 -21q-5 -39 -22 -55.5t-51 -16.5q-102 0 -166 -29.5t-99 -90.5t-49 -161l-10 -72q-18 -130 -87 -210t-204 -119l-1 -10q189 -70 189 -239 q0 -36 -10 -84l-24 -112q-12 -55 -12 -99q0 -97 59 -144t182 -47q28 0 40 -11t12 -37q0 -6 -2 -24q-5 -39 -22.5 -55.5t-51.5 -16.5q-176 0 -271.5 79.5t-95.5 231.5q0 62 16 132l21 93q12 53 12 94q0 87 -56 129.5t-181 42.5q-29 0 -42 11.5t-13 38.5z" />
<glyph unicode="|" d="M415 -310q0 4 2 20l285 1619q6 35 25.5 50t61.5 15q35 0 50 -10.5t15 -34.5q0 -4 -2 -20l-285 -1619q-6 -35 -25.5 -50t-61.5 -15q-35 0 -50 10.5t-15 34.5z" />
<glyph unicode="}" d="M108 -282q0 5 2 21q5 39 22 55.5t51 16.5q102 0 166 29.5t99.5 91t48.5 160.5l16 118q18 128 88 209.5t204 120.5l1 10q-181 70 -181 248q0 34 8 79l11 61q10 58 10 95q0 100 -57.5 147.5t-181.5 47.5q-28 0 -40 11t-12 37q0 6 2 24q5 39 22.5 55.5t51.5 16.5 q178 0 271 -80.5t93 -237.5q0 -60 -13 -125l-10 -52q-10 -55 -10 -91q0 -88 54 -130.5t177 -42.5q29 0 42 -11.5t13 -38.5q0 -6 -2 -22q-5 -39 -22.5 -55.5t-51.5 -16.5q-147 0 -226.5 -72.5t-95.5 -202.5l-16 -130q-25 -205 -145 -301t-333 -96q-29 0 -42.5 12t-13.5 39z " />
<glyph unicode="~" d="M181 543q0 14 7 25q47 76 115 121.5t146 45.5q58 0 108.5 -21t114.5 -61q58 -34 94 -50t75 -16q85 0 155 84q16 19 38 19t43 -17q32 -24 32 -52q0 -14 -7 -25q-47 -76 -115 -121.5t-146 -45.5q-58 0 -108 21t-116 61q-56 33 -93 49.5t-75 16.5q-85 0 -155 -84 q-16 -19 -38 -19t-43 17q-32 24 -32 52z" />
<glyph unicode="&#xa0;" />
<glyph unicode="&#xa1;" d="M366 -316q0 9 3 21l174 707q5 23 22 35.5t43 12.5t39 -12.5t11 -35.5l-77 -707q-4 -50 -50 -50h-130q-35 0 -35 29zM516 706q0 7 1 11l27 154q6 34 34.5 48.5t93.5 14.5q62 0 92.5 -12.5t30.5 -40.5q0 -6 -1 -10l-27 -154q-6 -34 -35 -48.5t-94 -14.5q-62 0 -92 12.5 t-30 39.5z" />
<glyph unicode="&#xa2;" d="M179 520q0 140 64.5 264.5t182 205.5t268.5 94l29 163q6 34 25.5 49.5t56.5 15.5q31 0 45.5 -11t14.5 -34q0 -6 -2 -20l-29 -167q73 -11 141.5 -37.5t125.5 -67.5q38 -27 38 -62q0 -21 -13 -44q-23 -40 -56 -40q-18 0 -37 13q-101 72 -225 91l-117 -661q67 8 132.5 30 t121.5 54q19 11 36 11q35 0 56 -44q12 -24 12 -43q0 -37 -41 -59q-71 -39 -161 -65.5t-182 -34.5l-32 -181q-6 -34 -25.5 -49.5t-56.5 -15.5q-31 0 -45.5 11t-14.5 34q0 6 2 20l32 182q-107 13 -185 67.5t-119.5 140t-41.5 190.5zM334 531q0 -105 57.5 -175t159.5 -86 l117 663q-96 -16 -172 -74.5t-119 -144.5t-43 -183z" />
<glyph unicode="&#xa3;" d="M199 87q0 28 28 51q107 91 161.5 178.5t54.5 187.5h-142q-27 0 -40 11t-13 35q0 11 3 26q7 39 24.5 55.5t51.5 16.5h86q-23 70 -33 107.5t-10 83.5q0 95 46 180t135 137.5t210 52.5q81 0 155 -22.5t133 -62.5q25 -16 25 -40q0 -22 -22 -56q-28 -42 -55 -42q-13 0 -30 10 q-101 65 -223 65q-67 0 -117.5 -31.5t-77 -83t-26.5 -109.5q0 -32 7.5 -60t24.5 -80q12 -32 17 -49h287q27 0 40 -11t13 -35q0 -11 -3 -26q-7 -39 -24.5 -55.5t-51.5 -16.5h-239q-2 -102 -49 -192.5t-132 -167.5h457q27 0 40 -11t13 -35q0 -11 -3 -26q-7 -39 -24 -55.5 t-51 -16.5h-601q-22 0 -33.5 26t-11.5 61z" />
<glyph unicode="&#xa4;" d="M98 210q0 23 27 45l156 130q-34 73 -34 160q0 83 27.5 160.5t78.5 139.5l-113 134q-19 22 -19 42q0 25 33 53q28 24 51 24t45 -27l111 -132q107 67 235 67q70 0 129 -19.5t105 -55.5l153 128q22 19 42 19q25 0 53 -33q24 -28 24 -51q0 -22 -27 -45l-156 -130 q34 -73 34 -160q0 -83 -27.5 -160.5t-78.5 -139.5l113 -134q19 -22 19 -42q0 -24 -33 -53q-28 -24 -51 -24q-22 0 -45 27l-111 132q-107 -67 -235 -67q-70 0 -129 19.5t-105 55.5l-153 -128q-22 -19 -42 -19q-24 0 -53 33q-24 29 -24 51zM394 552q0 -96 58.5 -154t161.5 -58 q87 0 153.5 44.5t102.5 116.5t36 151q0 96 -58.5 154t-161.5 58q-87 0 -153.5 -44.5t-102.5 -116.5t-36 -151z" />
<glyph unicode="&#xa5;" d="M161 337q0 15 2 25q7 39 24.5 55.5t51.5 16.5h302l11 65l-48 101h-256q-27 0 -40 11t-13 35q0 11 3 26q7 39 24.5 55.5t51.5 16.5h162l-169 357q-10 22 -10 34q0 16 12.5 28.5t40.5 23.5q26 11 46 11q16 0 26 -8t18 -25l245 -523l434 530q24 30 56 30q23 0 48 -15 q40 -24 40 -51q0 -20 -21 -46l-288 -346h162q27 0 40 -11t13 -35q0 -11 -3 -26q-7 -39 -24.5 -55.5t-51.5 -16.5h-255l-95 -114l-9 -52h310q27 0 40 -11t13 -35q0 -11 -3 -26q-7 -39 -24 -55.5t-51 -16.5h-311l-41 -235q-6 -35 -25.5 -50t-59.5 -15h-2q-35 0 -50 10.5 t-15 34.5q0 4 2 20l41 235h-301q-28 0 -40.5 11t-12.5 36z" />
<glyph unicode="&#xa6;" d="M415 -310q0 4 2 20l106 599q6 35 25.5 50t60.5 15q35 0 50.5 -10.5t15.5 -34.5q0 -6 -2 -20l-106 -599q-6 -35 -25.5 -50t-61.5 -15q-35 0 -50 10.5t-15 34.5zM595 710q0 6 2 20l105 599q6 35 25.5 50t61.5 15q35 0 50 -10.5t15 -34.5q0 -4 -2 -20l-105 -599 q-6 -35 -25.5 -50t-60.5 -15q-35 0 -50.5 10.5t-15.5 34.5z" />
<glyph unicode="&#xa7;" d="M169 -185q0 12 3 27q7 39 24 55.5t51 16.5h306q81 0 121.5 33.5t40.5 95.5q0 33 -16 59t-51 51l-287 200q-63 44 -96 102.5t-33 128.5q0 89 41 150t122 107q-7 27 -7 62q0 132 81 208t229 76h336q27 0 40 -10.5t13 -34.5q0 -12 -3 -27q-7 -39 -24 -55.5t-51 -16.5h-306 q-81 0 -121.5 -33.5t-40.5 -96.5q0 -33 16 -59t51 -50l287 -200q63 -44 96 -102.5t33 -128.5q0 -89 -41 -150t-122 -107q7 -35 7 -63q0 -131 -81 -207t-229 -76h-336q-27 0 -40 10.5t-13 34.5zM384 594q0 -72 73 -122l297 -206q26 -19 42 -35q37 24 56.5 55t19.5 76 q0 73 -73 123l-297 206q-26 19 -42 35q-37 -24 -56.5 -55.5t-19.5 -76.5z" />
<glyph unicode="&#xa8;" d="M443 1149q0 5 2 19l23 130q6 36 29 50.5t78 14.5q47 0 66 -10.5t19 -35.5q0 -5 -2 -19l-23 -130q-6 -36 -28.5 -50.5t-77.5 -14.5q-48 0 -67 10.5t-19 35.5zM863 1149q0 5 2 19l23 130q6 36 29 50.5t78 14.5q47 0 66 -10.5t19 -35.5q0 -5 -2 -19l-23 -130 q-6 -36 -28.5 -50.5t-77.5 -14.5q-48 0 -67 10.5t-19 35.5z" />
<glyph unicode="&#xa9;" d="M61 484q0 196 93 362.5t250 264.5t340 98q146 0 257.5 -66t172.5 -180.5t61 -257.5q0 -196 -92.5 -363t-249.5 -265.5t-340 -98.5q-146 0 -258 66t-173 181.5t-61 258.5zM182 487q0 -115 46 -203t131.5 -137t201.5 -49q148 0 275 80.5t202.5 219t75.5 304.5 q0 114 -45.5 202t-131 136.5t-201.5 48.5q-147 0 -274.5 -80t-203.5 -218t-76 -304zM344 526q0 81 28.5 163t83.5 140q49 53 115 80.5t143 27.5q45 0 89.5 -10.5t83.5 -29.5q36 -19 36 -48q0 -17 -10 -37q-19 -40 -49 -40q-14 0 -28 7q-34 17 -65 24.5t-69 7.5 q-46 0 -86.5 -19t-71.5 -57q-32 -39 -50 -92.5t-18 -107.5q0 -77 41 -118.5t108 -41.5q38 0 71.5 7.5t73.5 24.5q15 7 29 7t23.5 -10t16.5 -32q5 -18 5 -30q0 -18 -10.5 -30.5t-34.5 -22.5q-45 -19 -93.5 -29.5t-93.5 -10.5q-79 0 -140 33.5t-94.5 96.5t-33.5 147z" />
<glyph unicode="&#xaa;" d="M309 763q0 105 46.5 208t138.5 170.5t220 67.5q78 0 132.5 -33.5t83.5 -92.5l13 67q6 28 20 39t52 11q32 0 45 -8t13 -26q0 -4 -2 -16l-77 -436q-3 -16 -3 -30q0 -36 20 -54t55 -18h4q23 0 33 -10.5t10 -31.5q0 -7 -2 -23q-7 -33 -21.5 -48.5t-41.5 -15.5h-10 q-59 0 -100.5 30.5t-54.5 87.5q-61 -70 -129.5 -103t-154.5 -33q-83 0 -149 36.5t-103.5 104t-37.5 157.5zM452 770q0 -82 44.5 -127.5t122.5 -45.5q87 0 147.5 41t90.5 109.5t30 150.5q0 90 -47 134.5t-135 44.5q-74 0 -131.5 -43t-89.5 -113.5t-32 -150.5z" />
<glyph unicode="&#xab;" d="M172 593q0 17 12 27l346 314q12 12 29 12q27 0 61 -35q26 -27 26 -49q0 -19 -18 -35l-279 -249l218 -293q10 -13 10 -29q0 -27 -36 -52q-32 -22 -57 -22q-22 0 -36 19l-269 371q-7 11 -7 21zM652 573q0 17 12 27l366 334q12 12 29 12q27 0 61 -35q26 -27 26 -49 q0 -19 -18 -35l-299 -269l198 -273q10 -13 10 -29q0 -27 -36 -52q-32 -22 -57 -22q-22 0 -36 19l-249 351q-7 11 -7 21z" />
<glyph unicode="&#xac;" d="M204 750q0 12 3 27q7 39 24 55.5t51 16.5h812q28 0 40.5 -10t12.5 -34q0 -15 -2 -24l-70 -398q-6 -35 -25.5 -50t-60.5 -15q-35 0 -50.5 10.5t-15.5 34.5q0 6 2 20l57 322h-725q-27 0 -40 10.5t-13 34.5z" />
<glyph unicode="&#xad;" horiz-adv-x="0" />
<glyph unicode="&#xae;" d="M200 730q0 163 77.5 302t208.5 220.5t283 81.5q122 0 215 -55t143.5 -150.5t50.5 -214.5q0 -163 -77 -302.5t-207.5 -221.5t-283.5 -82q-122 0 -215 55t-144 151.5t-51 215.5zM301 732q0 -95 38 -168.5t109.5 -114.5t168.5 -41q124 0 229.5 67t168 182.5t62.5 254.5 q0 95 -38 168t-109.5 113.5t-167.5 40.5q-123 0 -229 -66.5t-169 -182t-63 -253.5zM459 585q0 5 2 21l76 432q4 28 19 40.5t44 12.5h147q54 0 95 -20.5t63 -57t22 -81.5q0 -70 -39.5 -121.5t-112.5 -74.5l76 -102q14 -19 14 -32q0 -19 -28 -38q-22 -15 -36 -15q-15 0 -30 20 l-104 149h-84l-19 -112q-5 -29 -19.5 -41.5t-43.5 -12.5q-22 0 -32 8t-10 25zM601 816h88q63 0 96 31t33 78q0 32 -22.5 50t-67.5 18h-96z" />
<glyph unicode="&#xaf;" d="M425 1153q0 15 2 25q7 39 24.5 55.5t51.5 16.5h522q27 0 40 -11t13 -35q0 -11 -3 -26q-7 -39 -24 -55.5t-51 -16.5h-522q-28 0 -40.5 11t-12.5 36z" />
<glyph unicode="&#xb0;" d="M337 894q0 82 40 154.5t112.5 116.5t163.5 44q69 0 125.5 -31t89.5 -86.5t33 -126.5q0 -84 -40 -156.5t-112 -116t-163 -43.5q-69 0 -126 31.5t-90 87t-33 126.5zM472 902q0 -52 33.5 -85t92.5 -33q48 0 86 24t60 63.5t22 84.5q0 52 -33.5 85t-91.5 33q-48 0 -86.5 -24 t-60.5 -64t-22 -84z" />
<glyph unicode="&#xb1;" d="M129 156q0 11 3 26q7 39 24.5 55.5t51.5 16.5h762q27 0 40 -11t13 -35q0 -11 -3 -26q-7 -39 -24.5 -55.5t-51.5 -16.5h-762q-27 0 -40 11t-13 35zM227 716q0 11 3 26q7 39 24.5 55.5t51.5 16.5h309l44 249q6 34 24 48.5t57 14.5q33 0 49 -10.5t16 -34.5q0 -4 -2 -18 l-44 -249h309q27 0 40 -11t13 -35q0 -11 -3 -26q-7 -39 -24.5 -55.5t-51.5 -16.5h-308l-44 -249q-6 -34 -24 -48.5t-57 -14.5q-33 0 -49 10.5t-16 34.5q0 4 2 18l44 249h-310q-27 0 -40 11t-13 35z" />
<glyph unicode="&#xb2;" d="M312 529q0 58 46 91l381 280q77 56 110.5 100t33.5 99q0 49 -34.5 77.5t-99.5 28.5q-52 0 -113.5 -15t-115.5 -39q-12 -5 -20 -5q-27 0 -44 42q-9 23 -9 36q0 23 24 36q68 36 148.5 55t153.5 19q118 0 185.5 -59.5t67.5 -163.5q0 -87 -48.5 -156t-159.5 -149l-274 -198 h376q21 0 31.5 -10.5t10.5 -33.5q0 -11 -1 -18q-4 -33 -17.5 -48t-37.5 -15h-556q-38 0 -38 46z" />
<glyph unicode="&#xb3;" d="M332 566q0 18 13 43q24 44 50 44q8 0 20 -5q53 -25 111 -39.5t107 -14.5q100 0 156 38.5t56 108.5q0 54 -42.5 76.5t-122.5 22.5h-52q-35 0 -35 42q0 7 2 23q10 60 55 60h39q194 0 194 139q0 49 -37.5 75t-100.5 26q-107 0 -225 -50q-8 -4 -17 -4q-31 0 -44 49 q-4 12 -4 26q0 33 31 48q128 60 278 60q124 0 193 -57t69 -156q0 -68 -39 -121.5t-109 -86.5q52 -22 80.5 -63.5t28.5 -98.5q0 -84 -41.5 -149t-122 -101t-195.5 -36q-76 0 -148 17.5t-129 49.5q-19 11 -19 34z" />
<glyph unicode="&#xb4;" d="M544 1115q0 19 16 31l348 256q18 13 37 13q34 0 67 -41q30 -39 30 -68q0 -26 -22 -39l-374 -219q-18 -10 -32 -10q-24 0 -46 25q-24 27 -24 52z" />
<glyph unicode="&#xb6;" d="M205 789q0 107 53.5 198t160 145.5t258.5 54.5h516q27 0 40 -11t13 -35q0 -11 -3 -26q-7 -39 -24.5 -55.5t-51.5 -16.5h-68l-244 -1388q-6 -35 -25.5 -50t-61.5 -15q-35 0 -50 10.5t-15 34.5q0 4 2 20l244 1388h-160l-244 -1388q-6 -35 -25.5 -50t-61.5 -15 q-35 0 -50 10.5t-15 34.5q0 4 2 20l149 847q-103 3 -179.5 38.5t-118 99.5t-41.5 149z" />
<glyph unicode="&#xb7;" d="M494 478q0 7 1 10l33 184q6 34 37 48.5t101 14.5q67 0 100 -12.5t33 -40.5q0 -7 -1 -10l-33 -184q-6 -34 -37 -48.5t-101 -14.5q-67 0 -100 12.5t-33 40.5z" />
<glyph unicode="&#xb8;" d="M221 -396q0 17 11 42q21 46 47 46q8 0 12 -2q41 -17 90.5 -28t96.5 -11q58 0 88 20t30 56q0 29 -25.5 41t-75.5 12l-32 -1h-7q-30 0 -30 31q0 3 2 15l35 203h135l-25 -142q88 2 133 -39t45 -105q0 -61 -29.5 -109t-91 -76.5t-153.5 -28.5q-138 0 -236 43q-20 9 -20 33z " />
<glyph unicode="&#xb9;" d="M339 524q0 6 2 22q9 62 60 62h205l98 551l-185 -88q-19 -9 -33 -9q-25 0 -40 34q-8 19 -8 34q0 30 34 46l328 152q18 7 28 7q18 0 28 -11.5t6 -31.5l-121 -684h194q22 0 31.5 -10.5t9.5 -30.5q0 -6 -2 -22q-9 -62 -60 -62h-534q-22 0 -31.5 10.5t-9.5 30.5z" />
<glyph unicode="&#xba;" d="M318 778q0 108 52 207.5t148.5 161.5t223.5 62q93 0 166.5 -40.5t114.5 -112t41 -161.5q0 -106 -51.5 -205.5t-148 -162t-224.5 -62.5q-94 0 -167 40t-114 111.5t-41 161.5zM457 787q0 -86 53 -138t144 -52q74 0 136 38t98 104.5t36 147.5q0 86 -52.5 138t-143.5 52 q-82 0 -143.5 -42.5t-94.5 -109.5t-33 -138z" />
<glyph unicode="&#xbb;" d="M140 266q0 19 18 35l299 269l-198 273q-10 13 -10 29q0 27 36 52q32 22 57 22q23 0 36 -19l249 -351q7 -10 7 -21q0 -16 -12 -27l-366 -334q-12 -12 -29 -12q-27 0 -61 35q-26 27 -26 49zM640 266q0 19 18 35l279 249l-218 293q-11 14 -11 29q0 26 37 52q32 22 57 22 q23 0 36 -19l269 -371q7 -10 7 -21q0 -16 -12 -27l-346 -314q-12 -12 -29 -12q-27 0 -61 35q-26 27 -26 49z" />
<glyph unicode="&#xbc;" d="M58 718q0 4 2 18q8 52 50 52h171l81 459l-154 -73q-14 -7 -27 -7q-23 0 -34 28q-7 18 -7 28q0 26 29 39l274 127q13 5 23 5q15 0 23.5 -9t5.5 -26l-101 -571h162q34 0 34 -34q0 -4 -2 -18q-8 -52 -50 -52h-446q-34 0 -34 34zM84 244q0 24 20 35l1017 561q7 4 16 4 q25 0 40 -28q8 -13 8 -30q0 -25 -19 -35l-1017 -561q-7 -4 -16 -4q-25 0 -40 28q-9 15 -9 30zM565 18q0 25 5.5 37t18.5 26l383 378q19 19 36 27.5t38 8.5q29 0 49.5 -13t16.5 -33l-66 -373h92q34 0 34 -34t-13 -52.5t-39 -18.5h-92l-27 -153q-4 -20 -18.5 -30t-44.5 -10 q-51 0 -51 31q0 6 1 9l27 153h-314q-17 0 -26.5 12t-9.5 35zM717 76h216l53 266z" />
<glyph unicode="&#xbd;" d="M58 718q0 4 2 18q8 52 50 52h171l81 459l-154 -73q-14 -7 -27 -7q-23 0 -34 28q-7 18 -7 28q0 26 29 39l274 127q13 5 23 5q15 0 23.5 -9t5.5 -26l-101 -571h162q34 0 34 -34q0 -4 -2 -18q-8 -52 -50 -52h-446q-34 0 -34 34zM84 294q0 24 20 35l1017 561q7 4 16 4 q25 0 40 -28q8 -13 8 -30q0 -25 -19 -35l-1017 -561q-7 -4 -16 -4q-25 0 -40 28q-9 15 -9 30zM570 -178q0 48 38 76l318 234q64 47 92 83.5t28 82.5q0 41 -28.5 64.5t-83.5 23.5q-44 0 -95 -12.5t-96 -32.5q-8 -4 -17 -4q-23 0 -36 35q-7 15 -7 30q0 19 19 30 q57 30 124.5 46t127.5 16q99 0 155.5 -50t56.5 -136q0 -73 -40.5 -130.5t-133.5 -124.5l-229 -165h314q18 0 26.5 -8.5t8.5 -28.5q0 -9 -1 -15q-4 -27 -14.5 -39.5t-30.5 -12.5h-465q-31 0 -31 38z" />
<glyph unicode="&#xbe;" d="M84 254q0 24 20 35l1017 561q7 4 16 4q25 0 40 -28q8 -13 8 -30q0 -25 -19 -35l-1017 -561q-7 -4 -16 -4q-25 0 -40 28q-9 15 -9 30zM85 753q0 14 11 36q20 36 42 36q9 0 17 -4q44 -21 92.5 -33t89.5 -12q83 0 130 32.5t47 90.5q0 45 -36 64t-102 19h-44q-29 0 -29 35 q0 5 2 19q4 24 14.5 37t31.5 13h32q162 0 162 116q0 41 -31 62.5t-84 21.5q-89 0 -188 -42q-8 -3 -14 -3q-25 0 -37 41q-3 12 -3 21q0 29 26 41q108 50 232 50q103 0 161 -48t58 -130q0 -57 -32.5 -102t-91.5 -72q44 -18 67.5 -52.5t23.5 -82.5q0 -70 -34.5 -124t-102 -84 t-163.5 -30q-64 0 -123.5 14.5t-107.5 41.5q-16 10 -16 28zM565 18q0 25 5.5 37t18.5 26l383 378q19 19 36 27.5t38 8.5q29 0 49.5 -13t16.5 -33l-66 -373h92q34 0 34 -34t-13 -52.5t-39 -18.5h-92l-27 -153q-4 -20 -18.5 -30t-44.5 -10q-51 0 -51 31q0 6 1 9l27 153h-314 q-17 0 -26.5 12t-9.5 35zM717 76h216l53 266z" />
<glyph unicode="&#xbf;" d="M156 -73q0 139 94.5 229t287.5 162l36 139q12 48 75 48q62 0 57 -48l-20 -198q-4 -38 -39 -51l-74 -28q-92 -35 -147 -67.5t-83 -75.5t-28 -103q0 -61 42.5 -96t123.5 -35q125 0 273 65q18 8 31 8q29 0 47 -43q10 -24 10 -42q0 -33 -32 -50q-165 -86 -344 -86 q-98 0 -167.5 33.5t-106 95t-36.5 143.5zM569 745q0 8 1 12l20 114q6 34 33 48.5t87 14.5q56 0 83.5 -12.5t27.5 -39.5q0 -7 -1 -11l-20 -114q-6 -34 -33.5 -48.5t-87.5 -14.5q-56 0 -83 12t-27 39z" />
<glyph unicode="&#xc0;" d="M41 51q0 17 13 40l577 1053q19 35 48 50t76 15t70 -15t30 -50l211 -1081q3 -13 3 -23q0 -21 -14.5 -32.5t-50.5 -15.5q-20 -2 -28 -2q-29 0 -42 11.5t-18 39.5l-55 289h-505l-164 -302q-22 -41 -58 -41q-18 0 -47 13q-24 11 -35 23t-11 28zM432 474h401l-100 569h-4z M433 1576q0 29 30 68q33 41 67 41q19 0 37 -13l348 -256q16 -12 16 -31q0 -25 -24 -52q-22 -25 -46 -25q-14 0 -32 10l-374 219q-22 13 -22 39z" />
<glyph unicode="&#xc1;" d="M41 51q0 17 13 40l577 1053q19 35 48 50t76 15t70 -15t30 -50l211 -1081q3 -13 3 -23q0 -21 -14.5 -32.5t-50.5 -15.5q-20 -2 -28 -2q-29 0 -42 11.5t-18 39.5l-55 289h-505l-164 -302q-22 -41 -58 -41q-18 0 -47 13q-24 11 -35 23t-11 28zM432 474h401l-100 569h-4z M610 1385q0 19 16 31l348 256q18 13 37 13q34 0 67 -41q30 -39 30 -68q0 -26 -22 -39l-374 -219q-18 -10 -32 -10q-24 0 -46 25q-24 27 -24 52z" />
<glyph unicode="&#xc2;" d="M41 51q0 17 13 40l577 1053q19 35 48 50t76 15t70 -15t30 -50l211 -1081q3 -13 3 -23q0 -21 -14.5 -32.5t-50.5 -15.5q-20 -2 -28 -2q-29 0 -42 11.5t-18 39.5l-55 289h-505l-164 -302q-22 -41 -58 -41q-18 0 -47 13q-24 11 -35 23t-11 28zM432 474h401l-100 569h-4z M451 1378q0 21 23 41l278 227q25 20 61 20q37 0 55 -20l208 -240q15 -17 15 -34q0 -21 -24 -44t-47 -23q-17 0 -32 13l-193 176l-254 -173q-14 -10 -30 -10q-24 0 -45 28q-15 20 -15 39z" />
<glyph unicode="&#xc3;" d="M41 51q0 17 13 40l577 1053q19 35 48 50t76 15t70 -15t30 -50l211 -1081q3 -13 3 -23q0 -21 -14.5 -32.5t-50.5 -15.5q-20 -2 -28 -2q-29 0 -42 11.5t-18 39.5l-55 289h-505l-164 -302q-22 -41 -58 -41q-18 0 -47 13q-24 11 -35 23t-11 28zM428 1416q0 19 14 36 q48 62 102.5 92.5t107.5 30.5q35 0 63.5 -9.5t68.5 -27.5q35 -17 59 -25t50 -8q32 0 62.5 17t63.5 51q12 12 29 12q25 0 47 -25q21 -22 21 -45q0 -19 -14 -36q-48 -62 -102.5 -92.5t-107.5 -30.5q-35 0 -63.5 9.5t-68.5 27.5q-35 17 -59 25t-50 8q-32 0 -62.5 -17t-63.5 -51 q-12 -12 -29 -12q-25 0 -47 25q-21 22 -21 45zM432 474h401l-100 569h-4z" />
<glyph unicode="&#xc4;" d="M41 51q0 17 13 40l577 1053q19 35 48 50t76 15t70 -15t30 -50l211 -1081q3 -13 3 -23q0 -21 -14.5 -32.5t-50.5 -15.5q-20 -2 -28 -2q-29 0 -42 11.5t-18 39.5l-55 289h-505l-164 -302q-22 -41 -58 -41q-18 0 -47 13q-24 11 -35 23t-11 28zM432 474h401l-100 569h-4z M471 1419q0 5 2 19l23 130q6 36 29 50.5t78 14.5q47 0 66 -10.5t19 -35.5q0 -5 -2 -19l-23 -130q-6 -36 -28.5 -50.5t-77.5 -14.5q-48 0 -67 10.5t-19 35.5zM891 1419q0 5 2 19l23 130q6 36 29 50.5t78 14.5q47 0 66 -10.5t19 -35.5q0 -5 -2 -19l-23 -130 q-6 -36 -28.5 -50.5t-77.5 -14.5q-48 0 -67 10.5t-19 35.5z" />
<glyph unicode="&#xc5;" d="M41 51q0 17 13 40l577 1053q19 35 48 50t76 15t70 -15t30 -50l211 -1081q3 -13 3 -23q0 -21 -14.5 -32.5t-50.5 -15.5q-20 -2 -28 -2q-29 0 -42 11.5t-18 39.5l-55 289h-505l-164 -302q-22 -41 -58 -41q-18 0 -47 13q-24 11 -35 23t-11 28zM432 474h401l-100 569h-4z M550 1528q0 74 35 135.5t96.5 97.5t137.5 36q68 0 119 -28.5t78.5 -79.5t27.5 -115q0 -74 -35 -135.5t-96.5 -97.5t-137.5 -36q-68 0 -119 28.5t-78.5 79.5t-27.5 115zM682 1535q0 -45 27 -71.5t74 -26.5q58 0 93.5 37.5t35.5 92.5q0 45 -27 71.5t-74 26.5 q-58 0 -93.5 -37.5t-35.5 -92.5z" />
<glyph unicode="&#xc6;" d="M-40 49q0 17 14 42l583 1028q21 37 44 52.5t57 15.5h568q27 0 40 -11t13 -35q0 -11 -3 -26q-7 -39 -24.5 -55.5t-51.5 -16.5h-362l-63 -359h317q27 0 40 -10.5t13 -34.5q0 -12 -3 -27q-7 -39 -24 -55.5t-51 -16.5h-317l-70 -396h382q27 0 40 -11t13 -35q0 -11 -3 -26 q-7 -39 -24 -55.5t-51 -16.5h-467q-29 0 -42.5 10.5t-13.5 35.5q0 14 2 22l54 302h-267l-193 -342q-23 -41 -59 -41q-18 0 -47 13q-44 21 -44 49zM382 514h213l94 529h-20z" />
<glyph unicode="&#xc7;" d="M170 453q0 196 78.5 370t222 280t329.5 106q180 0 339 -93q36 -21 36 -53q0 -20 -14 -48q-23 -45 -58 -45q-17 0 -31 10q-59 40 -133.5 60.5t-149.5 20.5q-138 0 -244 -86.5t-163.5 -225t-57.5 -288.5q0 -158 77 -246.5t213 -88.5q84 0 166.5 25t153.5 71q14 10 32 10 q34 0 57 -45q14 -28 14 -48q0 -32 -36 -53q-171 -98 -362 -107l-16 -93q88 2 133 -39t45 -105q0 -61 -29.5 -109t-91 -76.5t-153.5 -28.5q-138 0 -236 43q-20 9 -20 33q0 17 11 42q21 46 47 46q8 0 12 -2q41 -17 90.5 -28t96.5 -11q58 0 88 20t30 56q0 29 -25.5 41t-75.5 12 l-32 -1h-7q-30 0 -30 31q0 3 2 15l28 162q-105 20 -180.5 82.5t-115.5 160.5t-40 223z" />
<glyph unicode="&#xc8;" d="M164 46q0 14 2 22l186 1051q7 38 23 53t50 15h671q27 0 40 -11t13 -35q0 -11 -3 -26q-7 -39 -24.5 -55.5t-51.5 -16.5h-582l-63 -359h457q27 0 40 -10.5t13 -34.5q0 -12 -3 -27q-7 -39 -24 -55.5t-51 -16.5h-457l-70 -396h602q27 0 40 -11t13 -35q0 -11 -3 -26 q-7 -39 -24 -55.5t-51 -16.5h-687q-29 0 -42.5 10.5t-13.5 35.5zM503 1576q0 29 30 68q33 41 67 41q19 0 37 -13l348 -256q16 -12 16 -31q0 -25 -24 -52q-22 -25 -46 -25q-14 0 -32 10l-374 219q-22 13 -22 39z" />
<glyph unicode="&#xc9;" d="M164 46q0 14 2 22l186 1051q7 38 23 53t50 15h671q27 0 40 -11t13 -35q0 -11 -3 -26q-7 -39 -24.5 -55.5t-51.5 -16.5h-582l-63 -359h457q27 0 40 -10.5t13 -34.5q0 -12 -3 -27q-7 -39 -24 -55.5t-51 -16.5h-457l-70 -396h602q27 0 40 -11t13 -35q0 -11 -3 -26 q-7 -39 -24 -55.5t-51 -16.5h-687q-29 0 -42.5 10.5t-13.5 35.5zM550 1385q0 19 16 31l348 256q18 13 37 13q34 0 67 -41q30 -39 30 -68q0 -26 -22 -39l-374 -219q-18 -10 -32 -10q-24 0 -46 25q-24 27 -24 52z" />
<glyph unicode="&#xca;" d="M164 46q0 14 2 22l186 1051q7 38 23 53t50 15h671q27 0 40 -11t13 -35q0 -11 -3 -26q-7 -39 -24.5 -55.5t-51.5 -16.5h-582l-63 -359h457q27 0 40 -10.5t13 -34.5q0 -12 -3 -27q-7 -39 -24 -55.5t-51 -16.5h-457l-70 -396h602q27 0 40 -11t13 -35q0 -11 -3 -26 q-7 -39 -24 -55.5t-51 -16.5h-687q-29 0 -42.5 10.5t-13.5 35.5zM476 1378q0 21 23 41l278 227q25 20 61 20q37 0 55 -20l208 -240q15 -17 15 -34q0 -21 -24 -44t-47 -23q-17 0 -32 13l-193 176l-254 -173q-14 -10 -30 -10q-24 0 -45 28q-15 20 -15 39z" />
<glyph unicode="&#xcb;" d="M164 46q0 14 2 22l186 1051q7 38 23 53t50 15h671q27 0 40 -11t13 -35q0 -11 -3 -26q-7 -39 -24.5 -55.5t-51.5 -16.5h-582l-63 -359h457q27 0 40 -10.5t13 -34.5q0 -12 -3 -27q-7 -39 -24 -55.5t-51 -16.5h-457l-70 -396h602q27 0 40 -11t13 -35q0 -11 -3 -26 q-7 -39 -24 -55.5t-51 -16.5h-687q-29 0 -42.5 10.5t-13.5 35.5zM491 1419q0 5 2 19l23 130q6 36 29 50.5t78 14.5q47 0 66 -10.5t19 -35.5q0 -5 -2 -19l-23 -130q-6 -36 -28.5 -50.5t-77.5 -14.5q-48 0 -67 10.5t-19 35.5zM911 1419q0 5 2 19l23 130q6 36 29 50.5t78 14.5 q47 0 66 -10.5t19 -35.5q0 -5 -2 -19l-23 -130q-6 -36 -28.5 -50.5t-77.5 -14.5q-48 0 -67 10.5t-19 35.5z" />
<glyph unicode="&#xcc;" d="M150 47q0 15 2 25q7 39 24.5 55.5t51.5 16.5h266l158 899h-266q-27 0 -40 11t-13 35q0 11 3 26q7 39 24.5 55.5t51.5 16.5h662q27 0 40 -11t13 -35q0 -11 -3 -26q-7 -39 -24.5 -55.5t-51.5 -16.5h-246l-158 -899h286q27 0 40 -11t13 -35q0 -11 -3 -26q-7 -39 -24 -55.5 t-51 -16.5h-702q-28 0 -40.5 11t-12.5 36zM493 1576q0 29 30 68q33 41 67 41q19 0 37 -13l348 -256q16 -12 16 -31q0 -25 -24 -52q-22 -25 -46 -25q-14 0 -32 10l-374 219q-22 13 -22 39z" />
<glyph unicode="&#xcd;" d="M150 47q0 15 2 25q7 39 24.5 55.5t51.5 16.5h266l158 899h-266q-27 0 -40 11t-13 35q0 11 3 26q7 39 24.5 55.5t51.5 16.5h662q27 0 40 -11t13 -35q0 -11 -3 -26q-7 -39 -24.5 -55.5t-51.5 -16.5h-246l-158 -899h286q27 0 40 -11t13 -35q0 -11 -3 -26q-7 -39 -24 -55.5 t-51 -16.5h-702q-28 0 -40.5 11t-12.5 36zM560 1385q0 19 16 31l348 256q18 13 37 13q34 0 67 -41q30 -39 30 -68q0 -26 -22 -39l-374 -219q-18 -10 -32 -10q-24 0 -46 25q-24 27 -24 52z" />
<glyph unicode="&#xce;" d="M150 47q0 15 2 25q7 39 24.5 55.5t51.5 16.5h266l158 899h-266q-27 0 -40 11t-13 35q0 11 3 26q7 39 24.5 55.5t51.5 16.5h662q27 0 40 -11t13 -35q0 -11 -3 -26q-7 -39 -24.5 -55.5t-51.5 -16.5h-246l-158 -899h286q27 0 40 -11t13 -35q0 -11 -3 -26q-7 -39 -24 -55.5 t-51 -16.5h-702q-28 0 -40.5 11t-12.5 36zM456 1378q0 21 23 41l278 227q25 20 61 20q37 0 55 -20l208 -240q15 -17 15 -34q0 -21 -24 -44t-47 -23q-17 0 -32 13l-193 176l-254 -173q-14 -10 -30 -10q-24 0 -45 28q-15 20 -15 39z" />
<glyph unicode="&#xcf;" d="M150 47q0 15 2 25q7 39 24.5 55.5t51.5 16.5h266l158 899h-266q-27 0 -40 11t-13 35q0 11 3 26q7 39 24.5 55.5t51.5 16.5h662q27 0 40 -11t13 -35q0 -11 -3 -26q-7 -39 -24.5 -55.5t-51.5 -16.5h-246l-158 -899h286q27 0 40 -11t13 -35q0 -11 -3 -26q-7 -39 -24 -55.5 t-51 -16.5h-702q-28 0 -40.5 11t-12.5 36zM471 1419q0 5 2 19l23 130q6 36 29 50.5t78 14.5q47 0 66 -10.5t19 -35.5q0 -5 -2 -19l-23 -130q-6 -36 -28.5 -50.5t-77.5 -14.5q-48 0 -67 10.5t-19 35.5zM891 1419q0 5 2 19l23 130q6 36 29 50.5t78 14.5q47 0 66 -10.5 t19 -35.5q0 -5 -2 -19l-23 -130q-6 -36 -28.5 -50.5t-77.5 -14.5q-48 0 -67 10.5t-19 35.5z" />
<glyph unicode="&#xd0;" d="M84 586q0 11 3 26q7 39 24.5 55.5t51.5 16.5h112l77 435q7 38 23 53t50 15h276q136 0 236.5 -56t154.5 -160.5t54 -246.5q0 -127 -42 -265.5t-128 -245.5q-79 -99 -192 -156t-262 -57h-302q-29 0 -42.5 10.5t-13.5 35.5q0 14 2 22l84 472h-113q-27 0 -40 11t-13 35z M330 144h180q117 0 205 45t149 124q65 84 97 193t32 213q0 160 -85.5 242t-239.5 82h-180l-63 -359h220q27 0 40 -11t13 -35q0 -11 -3 -26q-7 -39 -24.5 -55.5t-51.5 -16.5h-219z" />
<glyph unicode="&#xd1;" d="M112 34q0 5 2 21l190 1077q6 35 25.5 50t61.5 15h27q45 0 57 -28l407 -892h4l150 855q6 35 25.5 50t57.5 15h2q34 0 48.5 -10.5t14.5 -33.5q0 -5 -2 -21l-193 -1095q-5 -27 -26 -43t-59 -16q-27 0 -44.5 14t-30.5 41l-410 898h-4l-155 -876q-6 -35 -25.5 -50t-57.5 -15 h-2q-34 0 -48.5 10.5t-14.5 33.5zM444 1416q0 19 14 36q48 62 102.5 92.5t107.5 30.5q35 0 63.5 -9.5t68.5 -27.5q35 -17 59 -25t50 -8q32 0 62.5 17t63.5 51q12 12 29 12q25 0 47 -25q21 -22 21 -45q0 -19 -14 -36q-48 -62 -102.5 -92.5t-107.5 -30.5q-35 0 -63.5 9.5 t-68.5 27.5q-35 17 -59 25t-50 8q-32 0 -62.5 -17t-63.5 -51q-12 -12 -29 -12q-25 0 -47 25q-21 22 -21 45z" />
<glyph unicode="&#xd2;" d="M114 459q0 135 39.5 266t115.5 236q83 116 203 182t270 66q134 0 234 -59.5t153.5 -168.5t53.5 -253q0 -135 -39.5 -266t-115.5 -236q-83 -116 -203 -182t-270 -66q-134 0 -234 59.5t-153.5 168.5t-53.5 253zM267 465q0 -105 36 -181.5t103 -117t160 -40.5q105 0 190 49 t146 134q62 86 95 195t33 218q0 105 -36 181.5t-103 117t-160 40.5q-105 0 -190 -49t-146 -134q-62 -86 -95 -195t-33 -218zM503 1576q0 29 30 68q33 41 67 41q19 0 37 -13l348 -256q16 -12 16 -31q0 -25 -24 -52q-22 -25 -46 -25q-14 0 -32 10l-374 219q-22 13 -22 39z" />
<glyph unicode="&#xd3;" d="M114 459q0 135 39.5 266t115.5 236q83 116 203 182t270 66q134 0 234 -59.5t153.5 -168.5t53.5 -253q0 -135 -39.5 -266t-115.5 -236q-83 -116 -203 -182t-270 -66q-134 0 -234 59.5t-153.5 168.5t-53.5 253zM267 465q0 -105 36 -181.5t103 -117t160 -40.5q105 0 190 49 t146 134q62 86 95 195t33 218q0 105 -36 181.5t-103 117t-160 40.5q-105 0 -190 -49t-146 -134q-62 -86 -95 -195t-33 -218zM550 1385q0 19 16 31l348 256q18 13 37 13q34 0 67 -41q30 -39 30 -68q0 -26 -22 -39l-374 -219q-18 -10 -32 -10q-24 0 -46 25q-24 27 -24 52z" />
<glyph unicode="&#xd4;" d="M114 459q0 135 39.5 266t115.5 236q83 116 203 182t270 66q134 0 234 -59.5t153.5 -168.5t53.5 -253q0 -135 -39.5 -266t-115.5 -236q-83 -116 -203 -182t-270 -66q-134 0 -234 59.5t-153.5 168.5t-53.5 253zM267 465q0 -105 36 -181.5t103 -117t160 -40.5q105 0 190 49 t146 134q62 86 95 195t33 218q0 105 -36 181.5t-103 117t-160 40.5q-105 0 -190 -49t-146 -134q-62 -86 -95 -195t-33 -218zM456 1378q0 21 23 41l278 227q25 20 61 20q37 0 55 -20l208 -240q15 -17 15 -34q0 -21 -24 -44t-47 -23q-17 0 -32 13l-193 176l-254 -173 q-14 -10 -30 -10q-24 0 -45 28q-15 20 -15 39z" />
<glyph unicode="&#xd5;" d="M114 459q0 135 39.5 266t115.5 236q83 116 203 182t270 66q134 0 234 -59.5t153.5 -168.5t53.5 -253q0 -135 -39.5 -266t-115.5 -236q-83 -116 -203 -182t-270 -66q-134 0 -234 59.5t-153.5 168.5t-53.5 253zM267 465q0 -105 36 -181.5t103 -117t160 -40.5q105 0 190 49 t146 134q62 86 95 195t33 218q0 105 -36 181.5t-103 117t-160 40.5q-105 0 -190 -49t-146 -134q-62 -86 -95 -195t-33 -218zM438 1416q0 19 14 36q48 62 102.5 92.5t107.5 30.5q35 0 63.5 -9.5t68.5 -27.5q35 -17 59 -25t50 -8q32 0 62.5 17t63.5 51q12 12 29 12 q25 0 47 -25q21 -22 21 -45q0 -19 -14 -36q-48 -62 -102.5 -92.5t-107.5 -30.5q-35 0 -63.5 9.5t-68.5 27.5q-35 17 -59 25t-50 8q-32 0 -62.5 -17t-63.5 -51q-12 -12 -29 -12q-25 0 -47 25q-21 22 -21 45z" />
<glyph unicode="&#xd6;" d="M114 459q0 135 39.5 266t115.5 236q83 116 203 182t270 66q134 0 234 -59.5t153.5 -168.5t53.5 -253q0 -135 -39.5 -266t-115.5 -236q-83 -116 -203 -182t-270 -66q-134 0 -234 59.5t-153.5 168.5t-53.5 253zM267 465q0 -105 36 -181.5t103 -117t160 -40.5q105 0 190 49 t146 134q62 86 95 195t33 218q0 105 -36 181.5t-103 117t-160 40.5q-105 0 -190 -49t-146 -134q-62 -86 -95 -195t-33 -218zM481 1419q0 5 2 19l23 130q6 36 29 50.5t78 14.5q47 0 66 -10.5t19 -35.5q0 -5 -2 -19l-23 -130q-6 -36 -28.5 -50.5t-77.5 -14.5q-48 0 -67 10.5 t-19 35.5zM901 1419q0 5 2 19l23 130q6 36 29 50.5t78 14.5q47 0 66 -10.5t19 -35.5q0 -5 -2 -19l-23 -130q-6 -36 -28.5 -50.5t-77.5 -14.5q-48 0 -67 10.5t-19 35.5z" />
<glyph unicode="&#xd7;" d="M218 285q0 22 25 43l302 262l-217 259q-18 21 -18 39q0 13 8.5 25.5t25.5 27.5q28 23 50 23q26 0 48 -27l212 -253l296 256q23 20 43 20q25 0 54 -31q26 -28 26 -50t-25 -43l-302 -261l218 -260q18 -21 18 -39q0 -13 -8.5 -25.5t-25.5 -27.5q-28 -23 -50 -23 q-25 0 -48 27l-213 253l-296 -256q-23 -20 -43 -20q-25 0 -54 31q-26 28 -26 50z" />
<glyph unicode="&#xd8;" d="M62 7q0 20 20 43l105 121q-73 120 -73 288q0 135 39.5 266t115.5 236q83 116 203 182t270 66q81 0 150 -22t123 -64l84 96q29 32 58 32q23 0 47 -19q31 -25 31 -49q0 -18 -21 -44l-105 -121q74 -120 74 -290q0 -135 -39.5 -266t-115.5 -236q-83 -116 -203 -182t-270 -66 q-163 0 -275 87l-83 -95q-29 -32 -57 -32q-22 0 -46 19q-32 24 -32 50zM267 465q0 -96 30 -168l616 708q-73 56 -182 56q-105 0 -190 -49t-146 -134q-62 -86 -95 -195t-33 -218zM382 183q74 -57 184 -57q105 0 190 49t146 134q62 86 95 195t33 218q0 96 -31 170z" />
<glyph unicode="&#xd9;" d="M168 316q0 48 11 109l125 707q6 35 25.5 50t59.5 15h2q35 0 50 -10.5t15 -34.5q0 -4 -2 -20l-123 -697q-10 -60 -10 -96q0 -112 61.5 -162.5t184.5 -50.5q147 0 230 71.5t112 235.5l123 699q6 35 25.5 50t59.5 15h2q35 0 50 -10.5t15 -34.5q0 -4 -2 -20l-129 -728 q-39 -220 -164 -323t-334 -103q-182 0 -284.5 86t-102.5 252zM493 1576q0 29 30 68q33 41 67 41q19 0 37 -13l348 -256q16 -12 16 -31q0 -25 -24 -52q-22 -25 -46 -25q-14 0 -32 10l-374 219q-22 13 -22 39z" />
<glyph unicode="&#xda;" d="M168 316q0 48 11 109l125 707q6 35 25.5 50t59.5 15h2q35 0 50 -10.5t15 -34.5q0 -4 -2 -20l-123 -697q-10 -60 -10 -96q0 -112 61.5 -162.5t184.5 -50.5q147 0 230 71.5t112 235.5l123 699q6 35 25.5 50t59.5 15h2q35 0 50 -10.5t15 -34.5q0 -4 -2 -20l-129 -728 q-39 -220 -164 -323t-334 -103q-182 0 -284.5 86t-102.5 252zM580 1385q0 19 16 31l348 256q18 13 37 13q34 0 67 -41q30 -39 30 -68q0 -26 -22 -39l-374 -219q-18 -10 -32 -10q-24 0 -46 25q-24 27 -24 52z" />
<glyph unicode="&#xdb;" d="M168 316q0 48 11 109l125 707q6 35 25.5 50t59.5 15h2q35 0 50 -10.5t15 -34.5q0 -4 -2 -20l-123 -697q-10 -60 -10 -96q0 -112 61.5 -162.5t184.5 -50.5q147 0 230 71.5t112 235.5l123 699q6 35 25.5 50t59.5 15h2q35 0 50 -10.5t15 -34.5q0 -4 -2 -20l-129 -728 q-39 -220 -164 -323t-334 -103q-182 0 -284.5 86t-102.5 252zM464 1378q0 21 23 41l278 227q25 20 61 20q37 0 55 -20l208 -240q15 -17 15 -34q0 -21 -24 -44t-47 -23q-17 0 -32 13l-193 176l-254 -173q-14 -10 -30 -10q-24 0 -45 28q-15 20 -15 39z" />
<glyph unicode="&#xdc;" d="M168 316q0 48 11 109l125 707q6 35 25.5 50t59.5 15h2q35 0 50 -10.5t15 -34.5q0 -4 -2 -20l-123 -697q-10 -60 -10 -96q0 -112 61.5 -162.5t184.5 -50.5q147 0 230 71.5t112 235.5l123 699q6 35 25.5 50t59.5 15h2q35 0 50 -10.5t15 -34.5q0 -4 -2 -20l-129 -728 q-39 -220 -164 -323t-334 -103q-182 0 -284.5 86t-102.5 252zM471 1419q0 5 2 19l23 130q6 36 29 50.5t78 14.5q47 0 66 -10.5t19 -35.5q0 -5 -2 -19l-23 -130q-6 -36 -28.5 -50.5t-77.5 -14.5q-48 0 -67 10.5t-19 35.5zM891 1419q0 5 2 19l23 130q6 36 29 50.5t78 14.5 q47 0 66 -10.5t19 -35.5q0 -5 -2 -19l-23 -130q-6 -36 -28.5 -50.5t-77.5 -14.5q-48 0 -67 10.5t-19 35.5z" />
<glyph unicode="&#xdd;" d="M261 1135q0 16 12.5 28.5t40.5 23.5q26 11 46 11q16 0 26 -8t18 -25l245 -523l434 530q24 30 56 30q23 0 48 -15q40 -24 40 -51q0 -20 -21 -46l-502 -604l-76 -431q-6 -35 -25.5 -50t-59.5 -15h-2q-35 0 -50 10.5t-15 34.5q0 4 2 20l78 444l-285 602q-10 22 -10 34z M584 1385q0 19 16 31l348 256q18 13 37 13q34 0 67 -41q30 -39 30 -68q0 -26 -22 -39l-374 -219q-18 -10 -32 -10q-24 0 -46 25q-24 27 -24 52z" />
<glyph unicode="&#xde;" d="M172 35q0 4 2 20l190 1077q6 35 25.5 50t59.5 15h2q35 0 50 -10.5t15 -34.5q0 -4 -2 -20l-33 -186h299q102 0 174 -38t108 -104t36 -150q0 -93 -40.5 -184.5t-133.5 -153.5t-239 -62h-326l-35 -199q-6 -35 -25.5 -50t-59.5 -15h-2q-35 0 -50 10.5t-15 34.5zM385 398h293 q94 0 152.5 36.5t84 91.5t25.5 115q0 74 -48.5 117.5t-146.5 43.5h-289z" />
<glyph unicode="&#xdf;" d="M172 35q0 4 2 20l157 888q19 111 75 195.5t144.5 131.5t202.5 47q108 0 183.5 -37.5t114 -102.5t38.5 -148q0 -111 -58.5 -196t-168.5 -138q84 -38 130 -109.5t46 -167.5q0 -98 -45.5 -199t-150.5 -171t-272 -70q-45 0 -61.5 12.5t-16.5 45.5q0 48 18 69t57 21 q111 0 182 44t102 111t31 141q0 95 -57 146t-159 51q-28 0 -40.5 11t-12.5 34q0 15 2 24q6 36 23.5 52t51.5 19q83 8 137.5 47t80 94t25.5 114q0 75 -50 116.5t-145 41.5q-102 0 -170.5 -64.5t-88.5 -175.5l-155 -877q-6 -35 -25.5 -50t-59.5 -15h-2q-35 0 -50 10.5 t-15 34.5z" />
<glyph unicode="&#xe0;" d="M143 366q0 138 57.5 271.5t172.5 221t278 87.5q93 0 166 -48t119 -132l19 103q6 36 22.5 50.5t55.5 14.5h2q33 0 47.5 -10.5t14.5 -33.5q0 -5 -2 -21l-104 -590q-4 -19 -4 -40q0 -47 23 -71t63 -24h5q28 0 40.5 -11t12.5 -36q0 -15 -2 -25q-8 -39 -25 -55.5t-51 -16.5 h-11q-80 0 -129 46.5t-53 131.5q-72 -99 -160 -149.5t-198 -50.5q-104 0 -185.5 47.5t-127.5 135.5t-46 205zM296 375q0 -114 60 -181.5t168 -67.5q100 0 181.5 60.5t128 156.5t46.5 198q0 121 -63.5 189t-171.5 68q-105 0 -184.5 -61t-122 -159t-42.5 -203zM455 1306 q0 29 30 68q33 41 67 41q19 0 37 -13l348 -256q16 -12 16 -31q0 -25 -24 -52q-22 -25 -46 -25q-14 0 -32 10l-374 219q-22 13 -22 39z" />
<glyph unicode="&#xe1;" d="M143 366q0 138 57.5 271.5t172.5 221t278 87.5q93 0 166 -48t119 -132l19 103q6 36 22.5 50.5t55.5 14.5h2q33 0 47.5 -10.5t14.5 -33.5q0 -5 -2 -21l-104 -590q-4 -19 -4 -40q0 -47 23 -71t63 -24h5q28 0 40.5 -11t12.5 -36q0 -15 -2 -25q-8 -39 -25 -55.5t-51 -16.5 h-11q-80 0 -129 46.5t-53 131.5q-72 -99 -160 -149.5t-198 -50.5q-104 0 -185.5 47.5t-127.5 135.5t-46 205zM296 375q0 -114 60 -181.5t168 -67.5q100 0 181.5 60.5t128 156.5t46.5 198q0 121 -63.5 189t-171.5 68q-105 0 -184.5 -61t-122 -159t-42.5 -203zM492 1115 q0 19 16 31l348 256q18 13 37 13q34 0 67 -41q30 -39 30 -68q0 -26 -22 -39l-374 -219q-18 -10 -32 -10q-24 0 -46 25q-24 27 -24 52z" />
<glyph unicode="&#xe2;" d="M143 366q0 138 57.5 271.5t172.5 221t278 87.5q93 0 166 -48t119 -132l19 103q6 36 22.5 50.5t55.5 14.5h2q33 0 47.5 -10.5t14.5 -33.5q0 -5 -2 -21l-104 -590q-4 -19 -4 -40q0 -47 23 -71t63 -24h5q28 0 40.5 -11t12.5 -36q0 -15 -2 -25q-8 -39 -25 -55.5t-51 -16.5 h-11q-80 0 -129 46.5t-53 131.5q-72 -99 -160 -149.5t-198 -50.5q-104 0 -185.5 47.5t-127.5 135.5t-46 205zM296 375q0 -114 60 -181.5t168 -67.5q100 0 181.5 60.5t128 156.5t46.5 198q0 121 -63.5 189t-171.5 68q-105 0 -184.5 -61t-122 -159t-42.5 -203zM408 1108 q0 21 23 41l278 227q25 20 61 20q37 0 55 -20l208 -240q15 -17 15 -34q0 -21 -24 -44t-47 -23q-17 0 -32 13l-193 176l-254 -173q-14 -10 -30 -10q-24 0 -45 28q-15 20 -15 39z" />
<glyph unicode="&#xe3;" d="M143 366q0 138 57.5 271.5t172.5 221t278 87.5q93 0 166 -48t119 -132l19 103q6 36 22.5 50.5t55.5 14.5h2q33 0 47.5 -10.5t14.5 -33.5q0 -5 -2 -21l-104 -590q-4 -19 -4 -40q0 -47 23 -71t63 -24h5q28 0 40.5 -11t12.5 -36q0 -15 -2 -25q-8 -39 -25 -55.5t-51 -16.5 h-11q-80 0 -129 46.5t-53 131.5q-72 -99 -160 -149.5t-198 -50.5q-104 0 -185.5 47.5t-127.5 135.5t-46 205zM296 375q0 -114 60 -181.5t168 -67.5q100 0 181.5 60.5t128 156.5t46.5 198q0 121 -63.5 189t-171.5 68q-105 0 -184.5 -61t-122 -159t-42.5 -203zM382 1156 q0 19 14 36q48 62 102.5 92.5t107.5 30.5q35 0 63.5 -9.5t68.5 -27.5q35 -17 59 -25t50 -8q32 0 62.5 17t63.5 51q12 12 29 12q25 0 47 -25q21 -22 21 -45q0 -19 -14 -36q-48 -62 -102.5 -92.5t-107.5 -30.5q-35 0 -63.5 9.5t-68.5 27.5q-35 17 -59 25t-50 8 q-32 0 -62.5 -17t-63.5 -51q-12 -12 -29 -12q-25 0 -47 25q-21 22 -21 45z" />
<glyph unicode="&#xe4;" d="M143 366q0 138 57.5 271.5t172.5 221t278 87.5q93 0 166 -48t119 -132l19 103q6 36 22.5 50.5t55.5 14.5h2q33 0 47.5 -10.5t14.5 -33.5q0 -5 -2 -21l-104 -590q-4 -19 -4 -40q0 -47 23 -71t63 -24h5q28 0 40.5 -11t12.5 -36q0 -15 -2 -25q-8 -39 -25 -55.5t-51 -16.5 h-11q-80 0 -129 46.5t-53 131.5q-72 -99 -160 -149.5t-198 -50.5q-104 0 -185.5 47.5t-127.5 135.5t-46 205zM296 375q0 -114 60 -181.5t168 -67.5q100 0 181.5 60.5t128 156.5t46.5 198q0 121 -63.5 189t-171.5 68q-105 0 -184.5 -61t-122 -159t-42.5 -203zM413 1149 q0 5 2 19l23 130q6 36 29 50.5t78 14.5q47 0 66 -10.5t19 -35.5q0 -5 -2 -19l-23 -130q-6 -36 -28.5 -50.5t-77.5 -14.5q-48 0 -67 10.5t-19 35.5zM833 1149q0 5 2 19l23 130q6 36 29 50.5t78 14.5q47 0 66 -10.5t19 -35.5q0 -5 -2 -19l-23 -130q-6 -36 -28.5 -50.5 t-77.5 -14.5q-48 0 -67 10.5t-19 35.5z" />
<glyph unicode="&#xe5;" d="M143 366q0 138 57.5 271.5t172.5 221t278 87.5q93 0 166 -48t119 -132l19 103q6 36 22.5 50.5t55.5 14.5h2q33 0 47.5 -10.5t14.5 -33.5q0 -5 -2 -21l-104 -590q-4 -19 -4 -40q0 -47 23 -71t63 -24h5q28 0 40.5 -11t12.5 -36q0 -15 -2 -25q-8 -39 -25 -55.5t-51 -16.5 h-11q-80 0 -129 46.5t-53 131.5q-72 -99 -160 -149.5t-198 -50.5q-104 0 -185.5 47.5t-127.5 135.5t-46 205zM296 375q0 -114 60 -181.5t168 -67.5q100 0 181.5 60.5t128 156.5t46.5 198q0 121 -63.5 189t-171.5 68q-105 0 -184.5 -61t-122 -159t-42.5 -203zM500 1259 q0 74 35 135.5t96.5 97.5t137.5 36q68 0 119 -28.5t78.5 -79.5t27.5 -115q0 -74 -35 -135.5t-96.5 -97.5t-137.5 -36q-68 0 -119 28.5t-78.5 79.5t-27.5 115zM632 1266q0 -45 27 -71.5t74 -26.5q58 0 93.5 37.5t35.5 92.5q0 45 -27 71.5t-74 26.5q-58 0 -93.5 -37.5 t-35.5 -92.5z" />
<glyph unicode="&#xe6;" d="M44 195q0 98 50.5 182.5t141.5 132.5q132 70 335 70l4 22q9 50 9 87q0 56 -24.5 84t-80.5 28q-87 0 -193 -72q-19 -13 -38 -13q-29 0 -52 32q-16 24 -16 44q0 29 31 52q71 53 140.5 77.5t142.5 24.5q153 0 201 -116q49 57 111 86.5t133 29.5q124 0 183 -78t59 -221 q0 -67 -12 -145q-5 -33 -22.5 -47.5t-51.5 -14.5h-399q-12 -76 -12 -132q0 -185 120 -185q48 0 91 18.5t93 59.5q20 17 42 17q14 0 27.5 -8t22.5 -23q13 -20 13 -40q0 -34 -37 -63q-65 -53 -131 -79.5t-136 -26.5q-163 0 -219 144q-60 -67 -139.5 -105.5t-159.5 -38.5 q-68 0 -119.5 27t-79.5 76t-28 114zM197 209q0 -43 24.5 -66.5t67.5 -23.5q56 0 107 28.5t86 79t46 113.5l18 100q-147 0 -230 -42q-57 -29 -88 -79t-31 -110zM726 580h300q5 42 5 69q0 74 -25 113t-80 39q-71 0 -119.5 -52t-80.5 -169z" />
<glyph unicode="&#xe7;" d="M154 380q0 148 71.5 278t200.5 209t294 79q95 0 188 -28.5t168 -82.5q38 -27 38 -62q0 -21 -13 -44q-23 -40 -56 -40q-17 0 -37 13q-64 47 -142 71.5t-157 24.5q-112 0 -203.5 -56t-144 -150t-52.5 -201q0 -78 32.5 -138t94 -93.5t145.5 -33.5q88 0 176.5 23.5 t162.5 66.5q19 11 36 11q35 0 56 -44q12 -24 12 -43q0 -37 -41 -59q-75 -42 -170.5 -68.5t-192.5 -32.5l-17 -94q88 2 133 -39t45 -105q0 -61 -29.5 -109t-91 -76.5t-153.5 -28.5q-138 0 -236 43q-20 9 -20 33q0 17 11 42q21 46 47 46q8 0 12 -2q41 -17 90.5 -28t96.5 -11 q58 0 88 20t30 56q0 29 -25.5 41t-75.5 12l-32 -1h-7q-30 0 -30 31q0 3 2 15l27 159q-102 16 -177 70.5t-114.5 138.5t-39.5 187z" />
<glyph unicode="&#xe8;" d="M154 354q0 164 72 299.5t201.5 214t295.5 78.5q109 0 190 -37.5t124.5 -104t43.5 -149.5q0 -220 -224 -244l-551 -57q2 -118 67.5 -174.5t184.5 -56.5q96 0 195 25.5t180 66.5q16 7 25 7q38 0 56 -56q6 -21 6 -36q0 -23 -11.5 -38t-35.5 -26q-89 -39 -203.5 -63.5 t-226.5 -24.5q-124 0 -211.5 45.5t-132.5 130t-45 200.5zM322 492l504 58q56 6 78.5 30t22.5 70q0 43 -25 77t-74.5 54t-119.5 20q-101 0 -180.5 -39.5t-131.5 -109.5t-74 -160zM455 1306q0 29 30 68q33 41 67 41q19 0 37 -13l348 -256q16 -12 16 -31q0 -25 -24 -52 q-22 -25 -46 -25q-14 0 -32 10l-374 219q-22 13 -22 39z" />
<glyph unicode="&#xe9;" d="M154 354q0 164 72 299.5t201.5 214t295.5 78.5q109 0 190 -37.5t124.5 -104t43.5 -149.5q0 -220 -224 -244l-551 -57q2 -118 67.5 -174.5t184.5 -56.5q96 0 195 25.5t180 66.5q16 7 25 7q38 0 56 -56q6 -21 6 -36q0 -23 -11.5 -38t-35.5 -26q-89 -39 -203.5 -63.5 t-226.5 -24.5q-124 0 -211.5 45.5t-132.5 130t-45 200.5zM322 492l504 58q56 6 78.5 30t22.5 70q0 43 -25 77t-74.5 54t-119.5 20q-101 0 -180.5 -39.5t-131.5 -109.5t-74 -160zM492 1115q0 19 16 31l348 256q18 13 37 13q34 0 67 -41q30 -39 30 -68q0 -26 -22 -39 l-374 -219q-18 -10 -32 -10q-24 0 -46 25q-24 27 -24 52z" />
<glyph unicode="&#xea;" d="M154 354q0 164 72 299.5t201.5 214t295.5 78.5q109 0 190 -37.5t124.5 -104t43.5 -149.5q0 -220 -224 -244l-551 -57q2 -118 67.5 -174.5t184.5 -56.5q96 0 195 25.5t180 66.5q16 7 25 7q38 0 56 -56q6 -21 6 -36q0 -23 -11.5 -38t-35.5 -26q-89 -39 -203.5 -63.5 t-226.5 -24.5q-124 0 -211.5 45.5t-132.5 130t-45 200.5zM322 492l504 58q56 6 78.5 30t22.5 70q0 43 -25 77t-74.5 54t-119.5 20q-101 0 -180.5 -39.5t-131.5 -109.5t-74 -160zM418 1108q0 21 23 41l278 227q25 20 61 20q37 0 55 -20l208 -240q15 -17 15 -34q0 -21 -24 -44 t-47 -23q-17 0 -32 13l-193 176l-254 -173q-14 -10 -30 -10q-24 0 -45 28q-15 20 -15 39z" />
<glyph unicode="&#xeb;" d="M154 354q0 164 72 299.5t201.5 214t295.5 78.5q109 0 190 -37.5t124.5 -104t43.5 -149.5q0 -220 -224 -244l-551 -57q2 -118 67.5 -174.5t184.5 -56.5q96 0 195 25.5t180 66.5q16 7 25 7q38 0 56 -56q6 -21 6 -36q0 -23 -11.5 -38t-35.5 -26q-89 -39 -203.5 -63.5 t-226.5 -24.5q-124 0 -211.5 45.5t-132.5 130t-45 200.5zM322 492l504 58q56 6 78.5 30t22.5 70q0 43 -25 77t-74.5 54t-119.5 20q-101 0 -180.5 -39.5t-131.5 -109.5t-74 -160zM423 1149q0 5 2 19l23 130q6 36 29 50.5t78 14.5q47 0 66 -10.5t19 -35.5q0 -5 -2 -19 l-23 -130q-6 -36 -28.5 -50.5t-77.5 -14.5q-48 0 -67 10.5t-19 35.5zM843 1149q0 5 2 19l23 130q6 36 29 50.5t78 14.5q47 0 66 -10.5t19 -35.5q0 -5 -2 -19l-23 -130q-6 -36 -28.5 -50.5t-77.5 -14.5q-48 0 -67 10.5t-19 35.5z" />
<glyph unicode="&#xec;" d="M244 826q0 11 3 26q7 39 24 55.5t51 16.5h338q28 0 41.5 -10.5t13.5 -34.5q0 -14 -2 -23l-96 -546q-7 -42 -7 -66q0 -63 32 -91.5t102 -28.5q106 0 218 34q16 4 22 4q41 0 53 -57q3 -15 3 -28q0 -25 -12 -39.5t-38 -22.5q-135 -37 -261 -37q-129 0 -199 66.5t-70 184.5 q0 40 7 78l83 473h-253q-27 0 -40 11t-13 35zM295 1306q0 29 30 68q33 41 67 41q19 0 37 -13l348 -256q16 -12 16 -31q0 -25 -24 -52q-22 -25 -46 -25q-14 0 -32 10l-374 219q-22 13 -22 39z" />
<glyph unicode="&#xed;" d="M244 826q0 11 3 26q7 39 24 55.5t51 16.5h338q28 0 41.5 -10.5t13.5 -34.5q0 -14 -2 -23l-96 -546q-7 -42 -7 -66q0 -63 32 -91.5t102 -28.5q106 0 218 34q16 4 22 4q41 0 53 -57q3 -15 3 -28q0 -25 -12 -39.5t-38 -22.5q-135 -37 -261 -37q-129 0 -199 66.5t-70 184.5 q0 40 7 78l83 473h-253q-27 0 -40 11t-13 35zM422 1115q0 19 16 31l348 256q18 13 37 13q34 0 67 -41q30 -39 30 -68q0 -26 -22 -39l-374 -219q-18 -10 -32 -10q-24 0 -46 25q-24 27 -24 52z" />
<glyph unicode="&#xee;" d="M244 826q0 11 3 26q7 39 24 55.5t51 16.5h338q28 0 41.5 -10.5t13.5 -34.5q0 -14 -2 -23l-96 -546q-7 -42 -7 -66q0 -63 32 -91.5t102 -28.5q106 0 218 34q16 4 22 4q41 0 53 -57q3 -15 3 -28q0 -25 -12 -39.5t-38 -22.5q-135 -37 -261 -37q-129 0 -199 66.5t-70 184.5 q0 40 7 78l83 473h-253q-27 0 -40 11t-13 35zM308 1108q0 21 23 41l278 227q25 20 61 20q37 0 55 -20l208 -240q15 -17 15 -34q0 -21 -24 -44t-47 -23q-17 0 -32 13l-193 176l-254 -173q-14 -10 -30 -10q-24 0 -45 28q-15 20 -15 39z" />
<glyph unicode="&#xef;" d="M244 826q0 11 3 26q7 39 24 55.5t51 16.5h338q28 0 41.5 -10.5t13.5 -34.5q0 -14 -2 -23l-96 -546q-7 -42 -7 -66q0 -63 32 -91.5t102 -28.5q106 0 218 34q16 4 22 4q41 0 53 -57q3 -15 3 -28q0 -25 -12 -39.5t-38 -22.5q-135 -37 -261 -37q-129 0 -199 66.5t-70 184.5 q0 40 7 78l83 473h-253q-27 0 -40 11t-13 35zM343 1149q0 5 2 19l23 130q6 36 29 50.5t78 14.5q47 0 66 -10.5t19 -35.5q0 -5 -2 -19l-23 -130q-6 -36 -28.5 -50.5t-77.5 -14.5q-48 0 -67 10.5t-19 35.5zM763 1149q0 5 2 19l23 130q6 36 29 50.5t78 14.5q47 0 66 -10.5 t19 -35.5q0 -5 -2 -19l-23 -130q-6 -36 -28.5 -50.5t-77.5 -14.5q-48 0 -67 10.5t-19 35.5z" />
<glyph unicode="&#xf0;" d="M142 363q0 140 67 259.5t192 191.5t289 72q67 0 128 -22t111 -61q-51 129 -165 232l-254 -89q-18 -6 -31 -6q-39 0 -54 48q-7 23 -7 34q0 36 47 52l171 60q-48 32 -103 61q-35 18 -35 48q0 20 15 45q26 45 58 45q18 0 35 -10q114 -60 200 -129l251 88q21 7 33 7 q19 0 31.5 -12t20.5 -37q6 -18 6 -33q0 -37 -46 -53l-185 -65q189 -213 189 -502q0 -86 -16 -175q-24 -134 -99.5 -232t-190 -150t-250.5 -52q-119 0 -212 49t-144.5 136.5t-51.5 199.5zM298 367q0 -111 71.5 -176t196.5 -65q112 0 197.5 52t132 137t46.5 181 q0 112 -71.5 177t-196.5 65q-109 0 -194.5 -50t-133.5 -135t-48 -186z" />
<glyph unicode="&#xf1;" d="M139 35q0 4 2 20l144 814q6 36 22.5 50.5t55.5 14.5h2q33 0 47.5 -10.5t14.5 -33.5q0 -5 -2 -21l-27 -153q84 103 196 166.5t219 63.5q85 0 147 -32t95 -90.5t33 -137.5q0 -38 -7 -76l-98 -555q-6 -35 -25.5 -50t-59.5 -15h-2q-35 0 -50 10.5t-15 34.5q0 4 2 20l97 550 q5 32 5 54q0 66 -38 102.5t-115 36.5q-86 0 -179 -54.5t-163 -148t-89 -203.5l-60 -337q-6 -35 -25.5 -50t-59.5 -15h-2q-35 0 -50 10.5t-15 34.5zM412 1156q0 19 14 36q48 62 102.5 92.5t107.5 30.5q35 0 63.5 -9.5t68.5 -27.5q35 -17 59 -25t50 -8q32 0 62.5 17t63.5 51 q12 12 29 12q25 0 47 -25q21 -22 21 -45q0 -19 -14 -36q-48 -62 -102.5 -92.5t-107.5 -30.5q-35 0 -63.5 9.5t-68.5 27.5q-35 17 -59 25t-50 8q-32 0 -62.5 -17t-63.5 -51q-12 -12 -29 -12q-25 0 -47 25q-21 22 -21 45z" />
<glyph unicode="&#xf2;" d="M140 386q0 147 69.5 276t195 206.5t285.5 77.5q123 0 218.5 -52.5t148.5 -145.5t53 -210q0 -147 -69.5 -276t-195 -206.5t-285.5 -77.5q-123 0 -218.5 52.5t-148.5 145.5t-53 210zM293 394q0 -80 33.5 -140.5t97.5 -94t152 -33.5q108 0 195.5 56t136.5 149t49 199 q0 80 -33.5 140.5t-97.5 94t-152 33.5q-108 0 -195.5 -56t-136.5 -149t-49 -199zM445 1306q0 29 30 68q33 41 67 41q19 0 37 -13l348 -256q16 -12 16 -31q0 -25 -24 -52q-22 -25 -46 -25q-14 0 -32 10l-374 219q-22 13 -22 39z" />
<glyph unicode="&#xf3;" d="M140 386q0 147 69.5 276t195 206.5t285.5 77.5q123 0 218.5 -52.5t148.5 -145.5t53 -210q0 -147 -69.5 -276t-195 -206.5t-285.5 -77.5q-123 0 -218.5 52.5t-148.5 145.5t-53 210zM293 394q0 -80 33.5 -140.5t97.5 -94t152 -33.5q108 0 195.5 56t136.5 149t49 199 q0 80 -33.5 140.5t-97.5 94t-152 33.5q-108 0 -195.5 -56t-136.5 -149t-49 -199zM502 1115q0 19 16 31l348 256q18 13 37 13q34 0 67 -41q30 -39 30 -68q0 -26 -22 -39l-374 -219q-18 -10 -32 -10q-24 0 -46 25q-24 27 -24 52z" />
<glyph unicode="&#xf4;" d="M140 386q0 147 69.5 276t195 206.5t285.5 77.5q123 0 218.5 -52.5t148.5 -145.5t53 -210q0 -147 -69.5 -276t-195 -206.5t-285.5 -77.5q-123 0 -218.5 52.5t-148.5 145.5t-53 210zM293 394q0 -80 33.5 -140.5t97.5 -94t152 -33.5q108 0 195.5 56t136.5 149t49 199 q0 80 -33.5 140.5t-97.5 94t-152 33.5q-108 0 -195.5 -56t-136.5 -149t-49 -199zM408 1108q0 21 23 41l278 227q25 20 61 20q37 0 55 -20l208 -240q15 -17 15 -34q0 -21 -24 -44t-47 -23q-17 0 -32 13l-193 176l-254 -173q-14 -10 -30 -10q-24 0 -45 28q-15 20 -15 39z" />
<glyph unicode="&#xf5;" d="M140 386q0 147 69.5 276t195 206.5t285.5 77.5q123 0 218.5 -52.5t148.5 -145.5t53 -210q0 -147 -69.5 -276t-195 -206.5t-285.5 -77.5q-123 0 -218.5 52.5t-148.5 145.5t-53 210zM293 394q0 -80 33.5 -140.5t97.5 -94t152 -33.5q108 0 195.5 56t136.5 149t49 199 q0 80 -33.5 140.5t-97.5 94t-152 33.5q-108 0 -195.5 -56t-136.5 -149t-49 -199zM387 1156q0 19 14 36q48 62 102.5 92.5t107.5 30.5q35 0 63.5 -9.5t68.5 -27.5q35 -17 59 -25t50 -8q32 0 62.5 17t63.5 51q12 12 29 12q25 0 47 -25q21 -22 21 -45q0 -19 -14 -36 q-48 -62 -102.5 -92.5t-107.5 -30.5q-35 0 -63.5 9.5t-68.5 27.5q-35 17 -59 25t-50 8q-32 0 -62.5 -17t-63.5 -51q-12 -12 -29 -12q-25 0 -47 25q-21 22 -21 45z" />
<glyph unicode="&#xf6;" d="M140 386q0 147 69.5 276t195 206.5t285.5 77.5q123 0 218.5 -52.5t148.5 -145.5t53 -210q0 -147 -69.5 -276t-195 -206.5t-285.5 -77.5q-123 0 -218.5 52.5t-148.5 145.5t-53 210zM293 394q0 -80 33.5 -140.5t97.5 -94t152 -33.5q108 0 195.5 56t136.5 149t49 199 q0 80 -33.5 140.5t-97.5 94t-152 33.5q-108 0 -195.5 -56t-136.5 -149t-49 -199zM423 1149q0 5 2 19l23 130q6 36 29 50.5t78 14.5q47 0 66 -10.5t19 -35.5q0 -5 -2 -19l-23 -130q-6 -36 -28.5 -50.5t-77.5 -14.5q-48 0 -67 10.5t-19 35.5zM843 1149q0 5 2 19l23 130 q6 36 29 50.5t78 14.5q47 0 66 -10.5t19 -35.5q0 -5 -2 -19l-23 -130q-6 -36 -28.5 -50.5t-77.5 -14.5q-48 0 -67 10.5t-19 35.5z" />
<glyph unicode="&#xf7;" d="M199 556q0 11 3 26q7 39 24.5 55.5t51.5 16.5h762q27 0 40 -11t13 -35q0 -11 -3 -26q-7 -39 -24.5 -55.5t-51.5 -16.5h-762q-27 0 -40 11t-13 35zM479 159q0 9 1 14l18 104q6 34 33 48.5t83 14.5q50 0 72.5 -11.5t22.5 -37.5q0 -9 -1 -14l-18 -104q-6 -34 -33.5 -48.5 t-83.5 -14.5q-50 0 -72 11.5t-22 37.5zM585 874q0 9 1 14l18 104q6 34 33 48.5t83 14.5q50 0 72.5 -11.5t22.5 -37.5q0 -9 -1 -14l-18 -104q-6 -34 -33.5 -48.5t-83.5 -14.5q-50 0 -72 11.5t-22 37.5z" />
<glyph unicode="&#xf8;" d="M26 34q0 24 29 47l131 108q-46 87 -46 197q0 147 69.5 276t195 206.5t285.5 77.5q86 0 159.5 -26t129.5 -75l119 98q26 22 51 22q27 0 52 -28q22 -27 22 -46q0 -23 -30 -49l-129 -107q46 -87 46 -197q0 -147 -69.5 -276t-195 -206.5t-285.5 -77.5q-86 0 -160 26.5 t-129 75.5l-120 -99q-26 -22 -51 -22q-26 0 -51 28q-23 26 -23 47zM293 394q0 -55 17 -103l548 454q-72 53 -184 53q-108 0 -195.5 -56t-136.5 -149t-49 -199zM391 180q73 -54 185 -54q108 0 195.5 56t136.5 149t49 199q0 55 -17 103z" />
<glyph unicode="&#xf9;" d="M162 238q0 38 7 76l98 555q6 35 25.5 50t59.5 15h2q35 0 50 -10.5t15 -34.5q0 -4 -2 -20l-97 -550q-5 -32 -5 -54q0 -66 38 -102.5t115 -36.5q86 0 179 54.5t163 148t89 203.5l60 337q6 35 25.5 50t59.5 15h2q35 0 50 -10.5t15 -34.5q0 -4 -2 -20l-144 -814 q-6 -36 -22.5 -50.5t-55.5 -14.5h-2q-33 0 -47.5 10.5t-14.5 33.5q0 5 2 21l27 153q-84 -103 -196 -166.5t-219 -63.5q-85 0 -147 32t-95 90.5t-33 137.5zM445 1306q0 29 30 68q33 41 67 41q19 0 37 -13l348 -256q16 -12 16 -31q0 -25 -24 -52q-22 -25 -46 -25q-14 0 -32 10 l-374 219q-22 13 -22 39z" />
<glyph unicode="&#xfa;" d="M162 238q0 38 7 76l98 555q6 35 25.5 50t59.5 15h2q35 0 50 -10.5t15 -34.5q0 -4 -2 -20l-97 -550q-5 -32 -5 -54q0 -66 38 -102.5t115 -36.5q86 0 179 54.5t163 148t89 203.5l60 337q6 35 25.5 50t59.5 15h2q35 0 50 -10.5t15 -34.5q0 -4 -2 -20l-144 -814 q-6 -36 -22.5 -50.5t-55.5 -14.5h-2q-33 0 -47.5 10.5t-14.5 33.5q0 5 2 21l27 153q-84 -103 -196 -166.5t-219 -63.5q-85 0 -147 32t-95 90.5t-33 137.5zM532 1115q0 19 16 31l348 256q18 13 37 13q34 0 67 -41q30 -39 30 -68q0 -26 -22 -39l-374 -219q-18 -10 -32 -10 q-24 0 -46 25q-24 27 -24 52z" />
<glyph unicode="&#xfb;" d="M162 238q0 38 7 76l98 555q6 35 25.5 50t59.5 15h2q35 0 50 -10.5t15 -34.5q0 -4 -2 -20l-97 -550q-5 -32 -5 -54q0 -66 38 -102.5t115 -36.5q86 0 179 54.5t163 148t89 203.5l60 337q6 35 25.5 50t59.5 15h2q35 0 50 -10.5t15 -34.5q0 -4 -2 -20l-144 -814 q-6 -36 -22.5 -50.5t-55.5 -14.5h-2q-33 0 -47.5 10.5t-14.5 33.5q0 5 2 21l27 153q-84 -103 -196 -166.5t-219 -63.5q-85 0 -147 32t-95 90.5t-33 137.5zM428 1108q0 21 23 41l278 227q25 20 61 20q37 0 55 -20l208 -240q15 -17 15 -34q0 -21 -24 -44t-47 -23q-17 0 -32 13 l-193 176l-254 -173q-14 -10 -30 -10q-24 0 -45 28q-15 20 -15 39z" />
<glyph unicode="&#xfc;" d="M162 238q0 38 7 76l98 555q6 35 25.5 50t59.5 15h2q35 0 50 -10.5t15 -34.5q0 -4 -2 -20l-97 -550q-5 -32 -5 -54q0 -66 38 -102.5t115 -36.5q86 0 179 54.5t163 148t89 203.5l60 337q6 35 25.5 50t59.5 15h2q35 0 50 -10.5t15 -34.5q0 -4 -2 -20l-144 -814 q-6 -36 -22.5 -50.5t-55.5 -14.5h-2q-33 0 -47.5 10.5t-14.5 33.5q0 5 2 21l27 153q-84 -103 -196 -166.5t-219 -63.5q-85 0 -147 32t-95 90.5t-33 137.5zM433 1149q0 5 2 19l23 130q6 36 29 50.5t78 14.5q47 0 66 -10.5t19 -35.5q0 -5 -2 -19l-23 -130q-6 -36 -28.5 -50.5 t-77.5 -14.5q-48 0 -67 10.5t-19 35.5zM853 1149q0 5 2 19l23 130q6 36 29 50.5t78 14.5q47 0 66 -10.5t19 -35.5q0 -5 -2 -19l-23 -130q-6 -36 -28.5 -50.5t-77.5 -14.5q-48 0 -67 10.5t-19 35.5z" />
<glyph unicode="&#xfd;" d="M201 868q0 21 14.5 34.5t47.5 21.5q30 7 43 7q18 0 28.5 -9.5t18.5 -31.5l220 -679l462 687q14 20 26.5 29.5t28.5 9.5q17 0 46 -13q24 -12 36 -24.5t12 -28.5q0 -17 -16 -41l-808 -1194q-27 -39 -58 -39q-20 0 -46 15q-21 12 -31.5 25t-10.5 28q0 18 17 44l233 342 l-258 789q-5 17 -5 28zM542 1115q0 19 16 31l348 256q18 13 37 13q34 0 67 -41q30 -39 30 -68q0 -26 -22 -39l-374 -219q-18 -10 -32 -10q-24 0 -46 25q-24 27 -24 52z" />
<glyph unicode="&#xfe;" d="M61 -353q0 4 2 20l280 1590q6 35 25.5 50t59.5 15h2q35 0 50 -10.5t15 -34.5q0 -4 -2 -20l-81 -456q148 145 333 145q107 0 189 -47.5t127.5 -135t45.5 -205.5q0 -138 -57 -272t-173 -221t-282 -87q-98 0 -174 43.5t-123 124.5l-85 -479q-6 -35 -25.5 -50t-59.5 -15h-2 q-35 0 -50 10.5t-15 34.5zM346 383q0 -121 69 -189t186 -68q108 0 188 61t122.5 158.5t42.5 203.5q0 114 -61 181.5t-174 67.5q-114 0 -198.5 -59t-129.5 -154.5t-45 -201.5z" />
<glyph unicode="&#xff;" d="M201 868q0 21 14.5 34.5t47.5 21.5q30 7 43 7q18 0 28.5 -9.5t18.5 -31.5l220 -679l462 687q14 20 26.5 29.5t28.5 9.5q17 0 46 -13q24 -12 36 -24.5t12 -28.5q0 -17 -16 -41l-808 -1194q-27 -39 -58 -39q-20 0 -46 15q-21 12 -31.5 25t-10.5 28q0 18 17 44l233 342 l-258 789q-5 17 -5 28zM423 1149q0 5 2 19l23 130q6 36 29 50.5t78 14.5q47 0 66 -10.5t19 -35.5q0 -5 -2 -19l-23 -130q-6 -36 -28.5 -50.5t-77.5 -14.5q-48 0 -67 10.5t-19 35.5zM843 1149q0 5 2 19l23 130q6 36 29 50.5t78 14.5q47 0 66 -10.5t19 -35.5q0 -5 -2 -19 l-23 -130q-6 -36 -28.5 -50.5t-77.5 -14.5q-48 0 -67 10.5t-19 35.5z" />
<glyph unicode="&#x152;" d="M107 454q0 118 33 241.5t99 225.5q79 123 200 194.5t284 71.5h474q27 0 40 -11t13 -35q0 -11 -3 -26q-7 -39 -24.5 -55.5t-51.5 -16.5h-322l-63 -359h247q27 0 40 -10.5t13 -34.5q0 -12 -3 -27q-7 -39 -24 -55.5t-51 -16.5h-247l-70 -396h342q27 0 40 -11t13 -35 q0 -11 -3 -26q-7 -39 -24 -55.5t-51 -16.5h-474q-132 0 -228 54.5t-147.5 156.5t-51.5 243zM260 461q0 -152 73.5 -236t205.5 -89l162 914q-106 -3 -188.5 -53t-139.5 -136q-56 -84 -84.5 -190t-28.5 -210z" />
<glyph unicode="&#x153;" d="M66 299q0 105 29 234t78 220q105 193 295 193q156 0 207 -140q55 71 122.5 105.5t141.5 34.5q124 0 183 -78t59 -221q0 -67 -12 -145q-5 -33 -22.5 -47.5t-51.5 -14.5h-399q-12 -76 -12 -132q0 -185 120 -185q48 0 91 18.5t93 59.5q20 17 42 17q14 0 27.5 -8t22.5 -23 q13 -20 13 -40q0 -34 -37 -63q-65 -53 -131 -79.5t-136 -26.5q-159 0 -216 138q-100 -138 -255 -138q-124 0 -188 83t-64 238zM221 294q0 -86 28 -127t85 -41q52 0 92 34.5t70 107.5q28 67 48 174.5t20 187.5q0 86 -27.5 127t-84.5 41q-105 0 -163 -142q-28 -67 -48 -174.5 t-20 -187.5zM726 580h300q5 42 5 69q0 74 -25 113t-80 39q-71 0 -119.5 -52t-80.5 -169z" />
<glyph unicode="&#x178;" d="M261 1135q0 16 12.5 28.5t40.5 23.5q26 11 46 11q16 0 26 -8t18 -25l245 -523l434 530q24 30 56 30q23 0 48 -15q40 -24 40 -51q0 -20 -21 -46l-502 -604l-76 -431q-6 -35 -25.5 -50t-59.5 -15h-2q-35 0 -50 10.5t-15 34.5q0 4 2 20l78 444l-285 602q-10 22 -10 34z M471 1419q0 5 2 19l23 130q6 36 29 50.5t78 14.5q47 0 66 -10.5t19 -35.5q0 -5 -2 -19l-23 -130q-6 -36 -28.5 -50.5t-77.5 -14.5q-48 0 -67 10.5t-19 35.5zM891 1419q0 5 2 19l23 130q6 36 29 50.5t78 14.5q47 0 66 -10.5t19 -35.5q0 -5 -2 -19l-23 -130 q-6 -36 -28.5 -50.5t-77.5 -14.5q-48 0 -67 10.5t-19 35.5z" />
<glyph unicode="&#x2c6;" d="M428 1108q0 21 23 41l278 227q25 20 61 20q37 0 55 -20l208 -240q15 -17 15 -34q0 -21 -24 -44t-47 -23q-17 0 -32 13l-193 176l-254 -173q-14 -10 -30 -10q-24 0 -45 28q-15 20 -15 39z" />
<glyph unicode="&#x2dc;" d="M412 1156q0 19 14 36q48 62 102.5 92.5t107.5 30.5q35 0 63.5 -9.5t68.5 -27.5q35 -17 59 -25t50 -8q32 0 62.5 17t63.5 51q12 12 29 12q25 0 47 -25q21 -22 21 -45q0 -19 -14 -36q-48 -62 -102.5 -92.5t-107.5 -30.5q-35 0 -63.5 9.5t-68.5 27.5q-35 17 -59 25t-50 8 q-32 0 -62.5 -17t-63.5 -51q-12 -12 -29 -12q-25 0 -47 25q-21 22 -21 45z" />
<glyph unicode="&#x2000;" horiz-adv-x="898" />
<glyph unicode="&#x2001;" horiz-adv-x="1797" />
<glyph unicode="&#x2002;" horiz-adv-x="898" />
<glyph unicode="&#x2003;" horiz-adv-x="1797" />
<glyph unicode="&#x2004;" horiz-adv-x="599" />
<glyph unicode="&#x2005;" horiz-adv-x="449" />
<glyph unicode="&#x2006;" horiz-adv-x="299" />
<glyph unicode="&#x2007;" horiz-adv-x="299" />
<glyph unicode="&#x2008;" horiz-adv-x="224" />
<glyph unicode="&#x2009;" horiz-adv-x="359" />
<glyph unicode="&#x200a;" horiz-adv-x="99" />
<glyph unicode="&#x2010;" d="M199 556q0 11 3 26q7 39 24.5 55.5t51.5 16.5h762q27 0 40 -11t13 -35q0 -11 -3 -26q-7 -39 -24.5 -55.5t-51.5 -16.5h-762q-27 0 -40 11t-13 35z" />
<glyph unicode="&#x2011;" d="M199 556q0 11 3 26q7 39 24.5 55.5t51.5 16.5h762q27 0 40 -11t13 -35q0 -11 -3 -26q-7 -39 -24.5 -55.5t-51.5 -16.5h-762q-27 0 -40 11t-13 35z" />
<glyph unicode="&#x2012;" d="M199 556q0 11 3 26q7 39 24.5 55.5t51.5 16.5h762q27 0 40 -11t13 -35q0 -11 -3 -26q-7 -39 -24.5 -55.5t-51.5 -16.5h-762q-27 0 -40 11t-13 35z" />
<glyph unicode="&#x2013;" d="M199 556q0 11 3 26q7 39 24.5 55.5t51.5 16.5h762q27 0 40 -11t13 -35q0 -11 -3 -26q-7 -39 -24.5 -55.5t-51.5 -16.5h-762q-27 0 -40 11t-13 35z" />
<glyph unicode="&#x2014;" d="M-1 556q0 11 3 26q7 39 24.5 55.5t51.5 16.5h1162q27 0 40 -11t13 -35q0 -11 -3 -26q-7 -39 -24.5 -55.5t-51.5 -16.5h-1162q-27 0 -40 11t-13 35z" />
<glyph unicode="&#x2018;" d="M500 780q0 14 10 31l275 457q24 39 92 39q59 0 59 -38q0 -10 -5 -25l-163 -454q-6 -18 -20.5 -28t-35.5 -10h-181q-15 0 -23 7.5t-8 20.5z" />
<glyph unicode="&#x2019;" d="M505 752q0 10 5 25l163 454q6 18 20.5 28t35.5 10h181q15 0 23 -7.5t8 -20.5q0 -14 -10 -31l-275 -457q-24 -39 -92 -39q-59 0 -59 38z" />
<glyph unicode="&#x201a;" d="M333 -223q0 10 5 25l163 454q6 18 20.5 28t35.5 10h181q15 0 23 -7.5t8 -20.5q0 -14 -10 -31l-275 -457q-24 -39 -92 -39q-59 0 -59 38z" />
<glyph unicode="&#x201c;" d="M255 780q0 14 10 31l275 457q24 39 92 39q59 0 59 -38q0 -10 -5 -25l-163 -454q-6 -18 -20.5 -28t-35.5 -10h-181q-15 0 -23 7.5t-8 20.5zM745 780q0 14 10 31l275 457q24 39 92 39q59 0 59 -38q0 -10 -5 -25l-163 -454q-6 -18 -20.5 -28t-35.5 -10h-181q-15 0 -23 7.5 t-8 20.5z" />
<glyph unicode="&#x201d;" d="M260 752q0 10 5 25l163 454q6 18 20.5 28t35.5 10h181q15 0 23 -7.5t8 -20.5q0 -14 -10 -31l-275 -457q-24 -39 -92 -39q-59 0 -59 38zM750 752q0 10 5 25l163 454q6 18 20.5 28t35.5 10h181q15 0 23 -7.5t8 -20.5q0 -14 -10 -31l-275 -457q-24 -39 -92 -39q-59 0 -59 38 z" />
<glyph unicode="&#x201e;" d="M88 -223q0 10 5 25l163 454q6 18 20.5 28t35.5 10h181q15 0 23 -7.5t8 -20.5q0 -14 -10 -31l-275 -457q-24 -39 -92 -39q-59 0 -59 38zM578 -223q0 10 5 25l163 454q6 18 20.5 28t35.5 10h181q15 0 23 -7.5t8 -20.5q0 -14 -10 -31l-275 -457q-24 -39 -92 -39 q-59 0 -59 38z" />
<glyph unicode="&#x2022;" d="M391 439q0 9 1 14l53 302q9 53 63.5 75.5t175.5 22.5q116 0 171 -20t55 -64q0 -9 -1 -14l-53 -302q-9 -53 -63.5 -75.5t-175.5 -22.5q-116 0 -171 20t-55 64z" />
<glyph unicode="&#x2026;" d="M46 34q0 6 1 9l23 134q5 29 29.5 41t79.5 12q52 0 77 -10.5t25 -33.5q0 -6 -1 -9l-23 -134q-5 -29 -29.5 -41t-79.5 -12q-52 0 -77 10.5t-25 33.5zM446 34q0 6 1 9l23 134q5 29 29.5 41t79.5 12q52 0 77 -10.5t25 -33.5q0 -6 -1 -9l-23 -134q-5 -29 -29.5 -41t-79.5 -12 q-52 0 -77 10.5t-25 33.5zM846 34q0 6 1 9l23 134q5 29 29.5 41t79.5 12q52 0 77 -10.5t25 -33.5q0 -6 -1 -9l-23 -134q-5 -29 -29.5 -41t-79.5 -12q-52 0 -77 10.5t-25 33.5z" />
<glyph unicode="&#x202f;" horiz-adv-x="359" />
<glyph unicode="&#x2039;" d="M422 583q0 17 12 27l356 324q12 12 29 12q27 0 61 -35q26 -27 26 -49q0 -19 -18 -35l-289 -259l208 -283q11 -14 11 -29q0 -26 -37 -52q-32 -22 -57 -22q-22 0 -36 19l-259 361q-7 11 -7 21z" />
<glyph unicode="&#x203a;" d="M380 266q0 19 18 35l289 259l-208 283q-11 14 -11 29q0 26 37 52q32 22 57 22q23 0 36 -19l259 -361q7 -10 7 -21q0 -16 -12 -27l-356 -324q-12 -12 -29 -12q-27 0 -61 35q-26 27 -26 49z" />
<glyph unicode="&#x205f;" horiz-adv-x="449" />
<glyph unicode="&#x20ac;" d="M95 417q0 15 2 25q8 39 25 55.5t51 16.5h79q4 80 25 166h-75q-27 0 -40 11t-13 35q0 11 3 26q7 39 24.5 55.5t51.5 16.5h97q76 175 214.5 280t320.5 105q175 0 329 -93q36 -21 36 -53q0 -20 -14 -48q-23 -45 -58 -45q-17 0 -31 10q-58 40 -129.5 60.5t-143.5 20.5 q-115 0 -206.5 -64t-150.5 -173h348q27 0 40 -11t13 -35q0 -11 -3 -26q-7 -39 -24.5 -55.5t-51.5 -16.5h-380q-24 -85 -28 -166h379q27 0 40 -10.5t13 -34.5q0 -12 -3 -27q-7 -39 -24 -55.5t-51 -16.5h-349q17 -117 83 -180.5t175 -63.5q82 0 163.5 25t151.5 71q14 10 32 10 q34 0 57 -45q14 -28 14 -48q0 -32 -36 -53q-186 -108 -393 -108q-174 0 -278.5 104.5t-125.5 287.5h-106q-28 0 -40.5 11t-12.5 36z" />
<glyph unicode="&#x2122;" d="M208 1232q0 6 2 20q6 33 23 46.5t51 13.5h382q28 0 41 -9t13 -31q0 -4 -2 -20q-6 -33 -22.5 -46t-50.5 -13h-129l-67 -380q-6 -35 -23 -50t-51 -15q-28 0 -40 10t-12 32q0 14 2 23l67 380h-129q-29 0 -42 9t-13 30zM734 784q0 14 4 29l108 444q8 35 25.5 50t51.5 15 q25 0 38.5 -6t17.5 -20l89 -299l195 299q16 26 68 26q31 0 46.5 -12.5t15.5 -39.5l-1 -13l-48 -444q-4 -35 -19.5 -50t-49.5 -15q-29 0 -40.5 11t-11.5 35q0 12 1 19l28 259l-127 -192q-33 -48 -79 -48q-23 0 -40.5 12.5t-24.5 35.5l-60 192l-63 -259q-8 -35 -24.5 -50 t-50.5 -15q-26 0 -37.5 8.5t-11.5 27.5z" />
<glyph unicode="&#x25fc;" horiz-adv-x="940" d="M0 0v940h940v-940h-940z" />
<glyph unicode="&#xfb01;" horiz-adv-x="2456" d="M-103 -277q0 23 18 51q28 42 57 42q15 0 31 -11q92 -69 206 -69q82 0 130.5 45.5t65.5 140.5l137 778h-198q-27 0 -40 10.5t-13 34.5q0 12 3 27q7 39 24 55.5t51 16.5h198l22 123q30 166 134 258t270 92q134 0 257 -51q43 -19 43 -58q0 -14 -6 -34q-19 -55 -57 -55 q-10 0 -25 5q-117 47 -228 47q-202 0 -240 -217l-19 -110h345q28 0 40.5 -11t12.5 -36q0 -15 -2 -25q-8 -39 -25 -55.5t-51 -16.5h-346l-139 -791q-27 -153 -118 -236t-239 -83q-152 0 -272 86q-27 19 -27 47zM1472 826q0 11 3 26q7 39 24 55.5t51 16.5h338q28 0 41.5 -10.5 t13.5 -34.5q0 -14 -2 -23l-96 -546q-7 -42 -7 -66q0 -63 32 -91.5t102 -28.5q106 0 218 34q16 4 22 4q41 0 53 -57q3 -15 3 -28q0 -25 -12 -39.5t-38 -22.5q-135 -37 -261 -37q-129 0 -199 66.5t-70 184.5q0 40 7 78l83 473h-253q-27 0 -40 11t-13 35zM1804 1149q0 5 2 19 l23 130q6 36 29 50.5t78 14.5q47 0 66 -10.5t19 -35.5q0 -5 -2 -19l-23 -130q-6 -36 -28.5 -50.5t-77.5 -14.5q-48 0 -67 10.5t-19 35.5z" />
<glyph unicode="&#xfb02;" horiz-adv-x="2456" d="M-103 -277q0 23 18 51q28 42 57 42q15 0 31 -11q92 -69 206 -69q82 0 130.5 45.5t65.5 140.5l137 778h-198q-27 0 -40 10.5t-13 34.5q0 12 3 27q7 39 24 55.5t51 16.5h198l22 123q30 166 134 258t270 92q134 0 257 -51q43 -19 43 -58q0 -14 -6 -34q-19 -55 -57 -55 q-10 0 -25 5q-117 47 -228 47q-202 0 -240 -217l-19 -110h345q28 0 40.5 -11t12.5 -36q0 -15 -2 -25q-8 -39 -25 -55.5t-51 -16.5h-346l-139 -791q-27 -153 -118 -236t-239 -83q-152 0 -272 86q-27 19 -27 47zM1500 1214q0 11 3 26q7 39 24.5 55.5t51.5 16.5h358 q28 0 41.5 -10.5t13.5 -34.5q0 -14 -2 -23l-165 -934q-7 -44 -7 -67q0 -62 32.5 -90.5t101.5 -28.5q106 0 218 34q16 4 22 4q41 0 53 -57q3 -15 3 -28q0 -25 -12 -39.5t-38 -22.5q-135 -37 -261 -37q-129 0 -199 66.5t-70 184.5q0 40 7 78l151 861h-273q-27 0 -40 11t-13 35 z" />
</font>
</defs>
</svg>
