<?xml version="1.0" standalone="no"?>
<!DOCTYPE svg PUBLIC "-//W3C//DTD SVG 1.1//EN" "http://www.w3.org/Graphics/SVG/1.1/DTD/svg11.dtd" >
<svg xmlns="http://www.w3.org/2000/svg">
<metadata></metadata>
<defs>
<font id="courier_primeregular" horiz-adv-x="1228" >
<font-face units-per-em="2048" ascent="1638" descent="-410" />
<missing-glyph horiz-adv-x="500" />
<glyph horiz-adv-x="0" />
<glyph unicode="&#xd;" />
<glyph horiz-adv-x="0" />
<glyph horiz-adv-x="0" />
<glyph unicode=" " />
<glyph unicode="!" d="M460 132q0 32 12 60t33 49t49 33t60 12t60 -12t49 -33t33 -49t12 -60t-12 -60t-33 -49t-49 -33t-60 -12t-60 12t-49 33t-33 49t-12 60zM508 1159q-4 50 41 50h130q45 0 41 -50l-49 -647q-3 -48 -57 -48q-26 0 -41 12.5t-17 35.5z" />
<glyph unicode="&#x22;" d="M301 1159q-6 50 41 50h164q47 0 41 -50l-55 -450q-3 -26 -20.5 -40t-47.5 -14q-29 0 -47 14t-21 40zM681 1159q-6 50 41 50h164q47 0 41 -50l-55 -450q-3 -26 -20.5 -40t-47.5 -14q-29 0 -47 14t-21 40z" />
<glyph unicode="#" d="M40 404q0 39 14.5 55.5t48.5 16.5h230l76 245h-206q-34 0 -48.5 16.5t-14.5 55.5t14.5 55.5t48.5 16.5h251l98 311q5 17 20.5 25t33.5 8q15 0 29.5 -4.5t25 -13.5t15.5 -21.5t0 -27.5l-87 -277h219l98 311q5 17 20.5 25t33.5 8q15 0 29.5 -4.5t25 -13.5t15.5 -21.5 t0 -27.5l-87 -277h182q34 0 48.5 -16.5t14.5 -55.5t-14.5 -55.5t-48.5 -16.5h-227l-77 -245h204q34 0 48.5 -16.5t14.5 -55.5t-14.5 -55.5t-48.5 -16.5h-249l-100 -321q-5 -17 -20.5 -25t-33.5 -8q-15 0 -29.5 4.5t-25 13.5t-15.5 21.5t0 27.5l90 287h-220l-100 -321 q-5 -17 -20.5 -25t-33.5 -8q-15 0 -29.5 4.5t-25 13.5t-15.5 21.5t0 27.5l90 287h-185q-34 0 -48.5 16.5t-14.5 55.5zM467 476h220l76 245h-219z" />
<glyph unicode="$" d="M179 183v240q0 35 16.5 50t58.5 15q22 0 34 -10t20 -31q29 -75 85 -118t145 -58v279q-54 7 -104.5 17t-95.5 28q-34 13 -62 32t-48.5 45t-32 60t-11.5 78q0 67 27 118.5t74.5 86.5t112 53t140.5 18v161q0 35 16.5 50t53.5 15t53.5 -15t16.5 -50v-174q53 -14 97 -39.5 t79 -57.5v45q0 35 16.5 50t58.5 15t58.5 -15t16.5 -50v-190q0 -35 -16.5 -50t-58.5 -15q-34 0 -48 26q-32 61 -83 95.5t-120 47.5v-247q53 -6 105 -15.5t98 -26.5q37 -14 68 -33.5t53.5 -47t35 -64t12.5 -84.5q0 -66 -24.5 -120t-72 -93t-116.5 -61.5t-159 -24.5v-178 q0 -35 -16.5 -50t-53.5 -15t-53.5 15t-16.5 50v189q-64 13 -115.5 40.5t-93.5 69.5v-56q0 -35 -16.5 -50t-58.5 -15t-58.5 15t-16.5 50zM342 810q0 -33 21.5 -53t59.5 -32q24 -8 53 -13t62 -10v239q-93 -2 -144.5 -36t-51.5 -95zM678 263q107 5 160.5 47t53.5 107 q0 36 -23 57.5t-62 34.5q-27 9 -59.5 14.5t-69.5 10.5v-271z" />
<glyph unicode="%" d="M50 935q0 57 21.5 106.5t59 87t87 59t106.5 21.5t106.5 -21.5t87 -59t59 -87t21.5 -106.5t-21.5 -106.5t-59 -87t-87 -59t-106.5 -21.5t-106.5 21.5t-87 59t-59 87t-21.5 106.5zM129 229l874 830q48 45 95 -5q49 -50 1 -95l-874 -830q-48 -45 -95 5q-49 50 -1 95z M180 935q0 -30 11.5 -56t31 -45.5t45.5 -31t56 -11.5t56 11.5t45.5 31t31 45.5t11.5 56t-11.5 56t-31 45.5t-45.5 31t-56 11.5t-56 -11.5t-45.5 -31t-31 -45.5t-11.5 -56zM630 252q0 57 21.5 106.5t59 87t87 59t106.5 21.5t106.5 -21.5t87 -59t59 -87t21.5 -106.5 t-21.5 -106.5t-59 -87t-87 -59t-106.5 -21.5t-106.5 21.5t-87 59t-59 87t-21.5 106.5zM760 252q0 -30 11.5 -56t31 -45.5t45.5 -31t56 -11.5t56 11.5t45.5 31t31 45.5t11.5 56t-11.5 56t-31 45.5t-45.5 31t-56 11.5t-56 -11.5t-45.5 -31t-31 -45.5t-11.5 -56z" />
<glyph unicode="&#x26;" d="M147 310q0 53 14 99t39.5 85.5t61.5 74.5t80 65q-44 51 -71.5 114t-27.5 142q0 67 23.5 125t67 101t105.5 68t139 25q90 0 168.5 -29.5t144.5 -74.5q21 -15 21 -54v-127q0 -35 -16.5 -50t-58.5 -15t-58.5 15t-16.5 50v90q-35 22 -81.5 34.5t-103.5 12.5q-43 0 -76 -13.5 t-55.5 -37t-34.5 -54.5t-12 -66q0 -54 21.5 -98.5t61.5 -89.5l293 -330q40 88 72 197q5 18 17 30t35 12h157q34 0 48.5 -15t14.5 -53t-14.5 -53t-48.5 -15h-93q-17 -60 -38.5 -114.5t-47.5 -102.5l109 -122h84q34 0 48.5 -15t14.5 -53t-14.5 -53t-48.5 -15h-114q-22 0 -42 8 t-36 25l-87 97q-62 -72 -138 -112t-167 -40q-81 0 -144 26.5t-106.5 72t-66 106t-22.5 127.5zM305 310q0 -39 13 -73t37 -58.5t57 -38.5t74 -14q63 0 114.5 29.5t94.5 82.5l-261 294q-69 -49 -99 -102t-30 -120z" />
<glyph unicode="'" d="M491 1159q-6 50 41 50h164q47 0 41 -50l-55 -450q-3 -26 -20.5 -40t-47.5 -14q-29 0 -47 14t-21 40z" />
<glyph unicode="(" d="M297 457q0 159 42.5 294t110.5 243.5t152.5 189.5t168.5 131q22 13 42.5 1t34.5 -35t17 -47.5t-13 -35.5q-74 -49 -147 -118.5t-131 -161.5t-93.5 -207t-35.5 -254t35.5 -253.5t93.5 -205.5t131 -160t147 -118q16 -11 13 -35.5t-17 -47.5t-34.5 -35t-42.5 1 q-84 50 -168.5 130.5t-152.5 188.5t-110.5 242t-42.5 293z" />
<glyph unicode=")" d="M363 -315.5q-3 24.5 13 35.5q74 49 147 118t130.5 160t93.5 205.5t36 253.5t-36 254t-93.5 207t-130.5 161.5t-147 118.5q-16 11 -13 35.5t17 47.5t34.5 35t42.5 -1q84 -50 168.5 -131t152.5 -189.5t110.5 -243.5t42.5 -294t-42.5 -293t-110.5 -242t-152.5 -188.5 t-168.5 -130.5q-22 -13 -42.5 -1t-34.5 35t-17 47.5z" />
<glyph unicode="*" d="M197 906q14 45 43.5 58t67.5 -4l256 -121l-36 280q-5 42 17 66t69 24t69 -24t17 -66l-36 -280l256 121q38 17 67.5 4t43.5 -58t-2.5 -73t-57.5 -36l-278 -53l196 -208q29 -30 25 -62t-42 -59q-38 -28 -70.5 -19.5t-52.5 44.5l-135 245l-135 -245q-20 -36 -52.5 -44.5 t-70.5 19.5q-38 27 -42 59t25 62l194 208l-276 53q-41 8 -57.5 36t-2.5 73z" />
<glyph unicode="+" d="M170 582q0 38 14.5 53t48.5 15h313v313q0 34 15 48.5t53 14.5t53 -14.5t15 -48.5v-313h313q34 0 48.5 -15t14.5 -53t-14.5 -53t-48.5 -15h-313v-313q0 -34 -15 -48.5t-53 -14.5t-53 14.5t-15 48.5v313h-313q-34 0 -48.5 15t-14.5 53z" />
<glyph unicode="," d="M374 -228l104 482q9 40 52 40h194q25 0 33.5 -18.5t-5.5 -44.5l-252 -484q-11 -21 -28.5 -31t-37.5 -10q-14 0 -26 4.5t-21 13t-12.5 20.5t-0.5 28z" />
<glyph unicode="-" d="M170 582q0 38 14.5 53t48.5 15h762q34 0 48.5 -15t14.5 -53t-14.5 -53t-48.5 -15h-762q-34 0 -48.5 15t-14.5 53z" />
<glyph unicode="." d="M445 147q0 35 13.5 65.5t36.5 53.5t53.5 36.5t65.5 13.5t65.5 -13.5t53.5 -36.5t36.5 -53.5t13.5 -65.5t-13.5 -65.5t-36.5 -53.5t-53.5 -36.5t-65.5 -13.5t-65.5 13.5t-53.5 36.5t-36.5 53.5t-13.5 65.5z" />
<glyph unicode="/" d="M199.5 -259.5q-4.5 11.5 1.5 26.5l682 1538q7 16 25.5 23t39.5 7q18 0 34.5 -4.5t28.5 -13t17 -20t-1 -26.5l-682 -1538q-7 -16 -25.5 -23t-39.5 -7q-18 0 -35 4.5t-29 13t-16.5 20z" />
<glyph unicode="0" d="M188 593q0 139 30 252.5t85.5 194.5t134 125t176.5 44q97 0 176 -44t134.5 -125t85.5 -194.5t30 -252.5t-30 -252.5t-85.5 -194t-134.5 -124.5t-176 -44q-98 0 -176.5 44t-134 124.5t-85.5 194t-30 252.5zM346 593q0 -112 20 -199t55.5 -146.5t84.5 -90.5t108 -31t108 31 t84.5 90.5t55.5 146.5t20 199t-20 199t-55.5 147t-84.5 91t-108 31t-108 -31t-84.5 -91t-55.5 -147t-20 -199z" />
<glyph unicode="1" d="M237 68q0 38 14.5 53t48.5 15h269v896l-248 -90q-22 -8 -41.5 1.5t-31.5 46.5t-3 58t33 29l365 131q32 11 54 -6.5t22 -55.5v-1010h255q34 0 48.5 -15t14.5 -53t-14.5 -53t-48.5 -15h-674q-34 0 -48.5 15t-14.5 53z" />
<glyph unicode="2" d="M187 68q0 37 15 54l440 446q44 45 75.5 82t52 71t30 67t9.5 71q0 92 -58 147t-170 55q-61 0 -112.5 -15.5t-94.5 -40.5v-110q0 -35 -16.5 -50t-58.5 -15t-58.5 15t-16.5 50v147q0 39 23 55q72 52 156 82t177 30q87 0 158.5 -23.5t122.5 -68.5t78.5 -110t27.5 -148 q0 -54 -14.5 -102.5t-41.5 -94t-65.5 -91t-86.5 -94.5l-336 -341h434v146q0 35 16.5 50t58.5 15t58.5 -15t16.5 -50v-214q0 -38 -14.5 -53t-48.5 -15h-694q-34 0 -48.5 15t-14.5 53z" />
<glyph unicode="3" d="M192 144.5q-5 23.5 16 58.5q22 35 46 40.5t46 -11.5q64 -48 141 -77t157 -29q127 0 190.5 60t63.5 159q0 105 -66 157.5t-183 52.5h-73q-34 0 -48.5 15t-14.5 53t14.5 53t48.5 15h55q115 0 173.5 48t58.5 140q0 85 -58.5 133.5t-167.5 48.5q-116 0 -197 -39v-67 q0 -35 -16.5 -50t-58.5 -15t-58.5 15t-16.5 50v109q0 22 6.5 35t20.5 22q69 42 147.5 65t171.5 23q87 0 157 -23.5t120 -66.5t77 -104t27 -136q0 -90 -41.5 -151t-111.5 -97q89 -37 140.5 -109t51.5 -177q0 -81 -27.5 -148.5t-80 -116t-129.5 -75.5t-175 -27q-50 0 -100.5 9 t-99 25.5t-93.5 39.5t-84 52q-24 17 -29 40.5z" />
<glyph unicode="4" d="M147 428q0 33 10 47l484 673q21 30 46 45.5t64 15.5q47 0 67 -21.5t20 -56.5v-635h162q34 0 48.5 -15t14.5 -53t-14.5 -53t-48.5 -15h-162v-224h132q34 0 48.5 -15t14.5 -53t-14.5 -53t-48.5 -15h-430q-34 0 -48.5 15t-14.5 53t14.5 53t48.5 15h148v224h-478 q-34 0 -48.5 15t-14.5 53zM346 496h342l8 496z" />
<glyph unicode="5" d="M189 137.5q-6 23.5 15 58.5t45 41t47 -11q63 -45 138.5 -72.5t153.5 -27.5q62 0 111 18.5t83 53t52 82t18 106.5q0 55 -17 101.5t-48.5 80t-76.5 52t-102 18.5q-72 0 -125 -18.5t-102 -52.5q-16 -10 -50 -10q-42 0 -59.5 15t-15.5 50l20 500q2 35 17.5 50t57.5 15h534 q34 0 48.5 -15t14.5 -53t-14.5 -53t-48.5 -15h-466l-13 -321q48 27 101.5 41.5t113.5 14.5q91 0 163.5 -29.5t122.5 -83t76.5 -127t26.5 -160.5q0 -88 -29.5 -162.5t-84.5 -129t-133 -85.5t-175 -31q-98 0 -194.5 32.5t-174.5 86.5q-24 17 -30 40.5z" />
<glyph unicode="6" d="M201 512q0 80 16.5 161.5t52.5 157t92.5 142t136 117t183.5 82t235 37.5q22 1 37.5 -12.5t19.5 -54.5q4 -45 -6 -62t-30 -18q-138 -7 -240.5 -43.5t-173.5 -98t-112 -145.5t-54 -186q53 69 128.5 105.5t161.5 36.5q83 0 154 -27t123 -76.5t81.5 -119.5t29.5 -155 q0 -81 -29.5 -150t-83 -119t-129 -78t-168.5 -28q-53 0 -103.5 12t-95.5 36.5t-83 61t-66 85.5q-38 65 -57.5 147.5t-19.5 191.5zM372 368q0 -53 18 -97.5t51 -76.5t80 -50t105 -18q57 0 103.5 16t79.5 46t51 72t18 93q0 52 -17.5 94.5t-50 72.5t-79 46.5t-105.5 16.5 q-56 0 -102.5 -15.5t-80 -44t-52.5 -68t-19 -87.5z" />
<glyph unicode="7" d="M229 905v214q0 38 14.5 53t48.5 15h674q34 0 48.5 -15t14.5 -53q0 -13 -2 -23.5t-4 -16.5l-426 -1055q-11 -28 -37 -39t-61 -5q-34 6 -50 25.5t-3 50.5l407 995h-474v-146q0 -35 -16.5 -50t-58.5 -15t-58.5 15t-16.5 50z" />
<glyph unicode="8" d="M206 340q0 51 15.5 95t42.5 81t64.5 65.5t81.5 48.5q-35 19 -65 44t-52.5 56.5t-35 69t-12.5 79.5q0 69 28 129.5t77 105t116.5 70t147.5 25.5q79 0 147 -25.5t117 -70t77 -105t28 -129.5q0 -42 -13 -79.5t-35.5 -69t-52.5 -56.5t-65 -44q44 -20 81.5 -48.5t65 -65.5 t43 -81t15.5 -95q0 -78 -31 -144.5t-85.5 -115t-129 -75.5t-162.5 -27t-162.5 27t-129 75.5t-85.5 115t-31 144.5zM366 341q0 -47 18 -86.5t51 -68t78.5 -44.5t100.5 -16t100.5 16t78.5 44.5t51 68t18 86.5t-18 86.5t-51 67.5t-78.5 43.5t-100.5 15.5t-100.5 -15.5 t-78.5 -43.5t-51 -67.5t-18 -86.5zM399 876q0 -39 16.5 -72t45 -58t68 -39t85.5 -14t85.5 14t68 39t45 58t16.5 72q0 43 -16.5 77t-45 58t-68 37t-85.5 13t-85.5 -13t-68 -37t-45 -58t-16.5 -77z" />
<glyph unicode="9" d="M192 834q0 81 29.5 150t83 119t129 78t168.5 28q53 0 103.5 -12t95.5 -36.5t82.5 -61t66.5 -85.5q38 -65 57.5 -147.5t19.5 -191.5q0 -80 -16.5 -161.5t-52.5 -157t-92.5 -142t-136 -117t-183.5 -82t-235 -37.5q-22 -1 -37.5 12.5t-19.5 54.5q-4 45 6 62t30 18 q138 7 240.5 43.5t173.5 98t111.5 145.5t54.5 186q-53 -69 -128.5 -105.5t-161.5 -36.5q-83 0 -154 27t-123 76.5t-81.5 119t-29.5 155.5zM350 834q0 -52 17.5 -94.5t50 -72.5t79 -46.5t105.5 -16.5q55 0 102 15.5t80.5 44t52.5 68t19 87.5q0 53 -18 97.5t-51 76.5t-80 50 t-105 18q-57 0 -103.5 -16t-79.5 -46t-51 -72t-18 -93z" />
<glyph unicode=":" d="M445 147q0 35 13.5 65.5t36.5 53.5t53.5 36.5t65.5 13.5t65.5 -13.5t53.5 -36.5t36.5 -53.5t13.5 -65.5t-13.5 -65.5t-36.5 -53.5t-53.5 -36.5t-65.5 -13.5t-65.5 13.5t-53.5 36.5t-36.5 53.5t-13.5 65.5zM445 777q0 35 13.5 65.5t36.5 53.5t53.5 36.5t65.5 13.5 t65.5 -13.5t53.5 -36.5t36.5 -53.5t13.5 -65.5t-13.5 -65.5t-36.5 -53.5t-53.5 -36.5t-65.5 -13.5t-65.5 13.5t-53.5 36.5t-36.5 53.5t-13.5 65.5z" />
<glyph unicode=";" d="M374 -228l104 482q9 40 52 40h194q25 0 33.5 -18.5t-5.5 -44.5l-252 -484q-11 -21 -28.5 -31t-37.5 -10q-14 0 -26 4.5t-21 13t-12.5 20.5t-0.5 28zM445 777q0 35 13.5 65.5t36.5 53.5t53.5 36.5t65.5 13.5t65.5 -13.5t53.5 -36.5t36.5 -53.5t13.5 -65.5t-13.5 -65.5 t-36.5 -53.5t-53.5 -36.5t-65.5 -13.5t-65.5 13.5t-53.5 36.5t-36.5 53.5t-13.5 65.5z" />
<glyph unicode="&#x3c;" d="M125 583q0 26 11.5 41.5t35.5 27.5l777 381q31 15 53 7.5t39 -40.5q17 -35 10 -57.5t-39 -37.5l-672 -322l672 -322q32 -15 39 -37.5t-10 -57.5q-17 -33 -39 -40.5t-53 7.5l-777 381q-24 12 -35.5 27.5t-11.5 41.5z" />
<glyph unicode="=" d="M170 382q0 38 14.5 53t48.5 15h762q34 0 48.5 -15t14.5 -53t-14.5 -53t-48.5 -15h-762q-34 0 -48.5 15t-14.5 53zM170 782q0 38 14.5 53t48.5 15h762q34 0 48.5 -15t14.5 -53t-14.5 -53t-48.5 -15h-762q-34 0 -48.5 15t-14.5 53z" />
<glyph unicode="&#x3e;" d="M177 223.5q7 22.5 39 37.5l672 322l-672 322q-32 15 -39 37.5t10 57.5q17 33 39 40.5t53 -7.5l777 -381q24 -12 35.5 -27.5t11.5 -41.5t-11.5 -41.5t-35.5 -27.5l-777 -381q-31 -15 -53 -7.5t-39 40.5q-17 35 -10 57.5z" />
<glyph unicode="?" d="M254 935v127q0 41 25 56q76 46 161.5 68.5t177.5 22.5q83 0 148.5 -23t110.5 -64t69 -99t24 -127q0 -67 -20.5 -117.5t-60.5 -90.5t-99.5 -73t-136.5 -64l-10 -141q-2 -23 -19.5 -37t-49.5 -14t-49.5 14t-19.5 37l-10 195q-1 20 6 32t24 19l69 28q57 23 98 45t68 46.5 t39.5 53.5t12.5 67q0 73 -49.5 119t-143.5 46q-61 0 -114.5 -8.5t-100.5 -28.5v-89q0 -35 -16.5 -50t-58.5 -15t-58.5 15t-16.5 50zM436 116q0 28 11 53.5t29.5 44t43.5 29.5t54 11q28 0 53.5 -11t44 -29.5t29.5 -44t11 -53.5q0 -29 -11 -54t-29.5 -43.5t-44 -29.5 t-53.5 -11q-29 0 -54 11t-43.5 29.5t-29.5 43.5t-11 54z" />
<glyph unicode="@" d="M50 389q0 147 46 273t127.5 218.5t193 145t243.5 52.5q116 0 210.5 -40.5t161 -113t102.5 -173t36 -220.5q0 -88 -20.5 -160.5t-57 -124.5t-88.5 -80.5t-115 -28.5q-66 0 -112 33t-69 96q-23 -30 -46 -54.5t-48 -42t-53 -27.5t-62 -10q-37 0 -69 15t-56 44t-37.5 70.5 t-13.5 95.5q0 45 11 94t31 96.5t49 90.5t64 75.5t76 52t86 19.5q48 0 78.5 -27.5t49.5 -72.5l31 63q5 11 23 11t36 -7t30.5 -19t8.5 -27l-77 -302q-17 -65 3 -103t65 -38q38 0 68 19.5t50.5 55t31.5 84.5t11 109q0 98 -27.5 176.5t-78.5 133.5t-124 84.5t-164 29.5 q-104 0 -192 -43.5t-152.5 -119.5t-101 -179.5t-36.5 -223.5q0 -96 25.5 -173.5t74.5 -132t121.5 -84t165.5 -29.5q72 0 138 10.5t117 26.5q36 11 52 -43q8 -27 2.5 -42.5t-21.5 -22.5q-53 -23 -128 -37.5t-158 -14.5q-120 0 -215 37.5t-161 108t-101 170.5t-35 226z M458 359q0 -49 18.5 -71t47.5 -22q39 0 73 27.5t59.5 70.5t40.5 95.5t15 101.5q0 47 -20.5 72t-55.5 25q-27 0 -58.5 -26t-58 -68t-44 -95.5t-17.5 -109.5z" />
<glyph unicode="A" d="M10 68q0 38 14.5 53t48.5 15h56l331 915h-187q-34 0 -48.5 15t-14.5 53t14.5 53t48.5 15h367q40 0 64.5 -15t36.5 -50l353 -986h61q34 0 48.5 -15t14.5 -53t-14.5 -53t-48.5 -15h-354q-34 0 -48.5 15t-14.5 53t14.5 53t48.5 15h135l-82 238h-485l-83 -238h121 q34 0 48.5 -15t14.5 -53t-14.5 -53t-48.5 -15h-334q-34 0 -48.5 15t-14.5 53zM416 510h392l-186 541h-19z" />
<glyph unicode="B" d="M80 68q0 38 14.5 53t48.5 15h122v915h-122q-34 0 -48.5 15t-14.5 53t14.5 53t48.5 15h501q90 0 158 -23t113.5 -65.5t69 -102t23.5 -131.5q0 -78 -35 -136t-98 -94q106 -34 162.5 -109t56.5 -187q0 -79 -25.5 -141.5t-74.5 -106.5t-120.5 -67.5t-163.5 -23.5h-567 q-34 0 -48.5 15t-14.5 53zM415 136h265q125 0 190.5 53t65.5 150q0 206 -251 206h-270v-409zM415 681h207q118 0 175.5 48t57.5 136q0 91 -57.5 138.5t-175.5 47.5h-207v-370z" />
<glyph unicode="C" d="M118 593q0 139 37.5 252.5t106 194.5t163.5 125t209 44q97 0 169 -32.5t121 -90.5v58q0 35 16.5 50t58.5 15t58.5 -15t16.5 -50v-330q0 -35 -16.5 -50t-58.5 -15t-58.5 15t-16.5 50q0 49 -16.5 94t-51 79t-87.5 54t-125 20q-81 0 -149 -32.5t-116.5 -93.5t-75.5 -147.5 t-27 -194.5t25.5 -194.5t72 -147t113 -93t147.5 -32.5q100 0 189.5 28.5t161.5 84.5q20 16 44 14t46 -39q18 -29 18 -52q0 -4 -1 -8q-4 -26 -30 -45q-95 -66 -204 -98.5t-224 -32.5q-118 0 -213.5 44t-162.5 124.5t-103.5 194t-36.5 252.5z" />
<glyph unicode="D" d="M80 68q0 38 14.5 53t48.5 15h112v915h-112q-34 0 -48.5 15t-14.5 53t14.5 53t48.5 15h471q118 0 215 -41t166 -117.5t107 -186.5t38 -249t-38 -249t-107 -186.5t-166 -117t-215 -40.5h-471q-34 0 -48.5 15t-14.5 53zM405 136h186q89 0 161 29.5t123 87t79 143t28 197.5 t-28 197.5t-79 143.5t-123 87.5t-161 29.5h-186v-915z" />
<glyph unicode="E" d="M80 68q0 38 14.5 53t48.5 15h102v915h-102q-34 0 -48.5 15t-14.5 53t14.5 53t48.5 15h874q34 0 48.5 -15t14.5 -53v-254q0 -35 -16.5 -50t-58.5 -15t-58.5 15t-16.5 50v186h-535v-371h250v91q0 35 16.5 50t58.5 15t58.5 -15t16.5 -50v-318q0 -35 -16.5 -50t-58.5 -15 t-58.5 15t-16.5 50v91h-250v-408h555v229q0 35 16.5 50t58.5 15t58.5 -15t16.5 -50v-297q0 -38 -14.5 -53t-48.5 -15h-894q-34 0 -48.5 15t-14.5 53z" />
<glyph unicode="F" d="M80 68q0 38 14.5 53t48.5 15h132v915h-132q-34 0 -48.5 15t-14.5 53t14.5 53t48.5 15h904q34 0 48.5 -15t14.5 -53v-264q0 -35 -16.5 -50t-58.5 -15t-58.5 15t-16.5 50v196h-535v-391h250v91q0 35 16.5 50t58.5 15t58.5 -15t16.5 -50v-318q0 -35 -16.5 -50t-58.5 -15 t-58.5 15t-16.5 50v91h-250v-388h232q34 0 48.5 -15t14.5 -53t-14.5 -53t-48.5 -15h-514q-34 0 -48.5 15t-14.5 53z" />
<glyph unicode="G" d="M98 593q0 139 39.5 252.5t109.5 194.5t166.5 125t210.5 44q97 0 168.5 -30t119.5 -84v49q0 35 16.5 50t58.5 15t58.5 -15t16.5 -50v-290q0 -35 -16.5 -50t-58.5 -15t-58.5 15t-16.5 50q0 45 -18.5 83t-53.5 65.5t-87 43t-119 15.5q-83 0 -152.5 -32.5t-119.5 -93.5 t-78 -147.5t-28 -194.5t26.5 -194.5t74.5 -147t116 -93t151 -32.5q85 0 159 13.5t140 43.5v227h-247q-34 0 -48.5 15t-14.5 53t14.5 53t48.5 15h429q34 0 48.5 -15t14.5 -53t-14.5 -53t-48.5 -15h-32v-267q0 -49 -36 -69q-83 -48 -190 -72t-223 -24q-118 0 -215 44 t-166 124.5t-107 194t-38 252.5z" />
<glyph unicode="H" d="M80 68q0 38 14.5 53t48.5 15h72v915h-72q-34 0 -48.5 15t-14.5 53t14.5 53t48.5 15h314q34 0 48.5 -15t14.5 -53t-14.5 -53t-48.5 -15h-92v-371h498v371h-92q-34 0 -48.5 15t-14.5 53t14.5 53t48.5 15h314q34 0 48.5 -15t14.5 -53t-14.5 -53t-48.5 -15h-72v-915h72 q34 0 48.5 -15t14.5 -53t-14.5 -53t-48.5 -15h-314q-34 0 -48.5 15t-14.5 53t14.5 53t48.5 15h92v408h-498v-408h92q34 0 48.5 -15t14.5 -53t-14.5 -53t-48.5 -15h-314q-34 0 -48.5 15t-14.5 53z" />
<glyph unicode="I" d="M200 68q0 38 14.5 53t48.5 15h276v915h-256q-34 0 -48.5 15t-14.5 53t14.5 53t48.5 15h662q34 0 48.5 -15t14.5 -53t-14.5 -53t-48.5 -15h-256v-915h276q34 0 48.5 -15t14.5 -53t-14.5 -53t-48.5 -15h-702q-34 0 -48.5 15t-14.5 53z" />
<glyph unicode="J" d="M115 180v285q0 35 16.5 50t58.5 15t58.5 -15t16.5 -50v-264q84 -75 230 -75q133 0 191 59t58 178v688h-341q-34 0 -48.5 15t-14.5 53t14.5 53t48.5 15h692q34 0 48.5 -15t14.5 -53t-14.5 -53t-48.5 -15h-201v-718q0 -177 -102 -266t-298 -89q-119 0 -210.5 42t-152.5 109 q-16 19 -16 51z" />
<glyph unicode="K" d="M80 68q0 38 14.5 53t48.5 15h112v915h-112q-34 0 -48.5 15t-14.5 53t14.5 53t48.5 15h354q34 0 48.5 -15t14.5 -53t-14.5 -53t-48.5 -15h-92v-421l434 421h-68q-34 0 -48.5 15t-14.5 53t14.5 53t48.5 15h324q34 0 48.5 -15t14.5 -53t-14.5 -53t-48.5 -15h-57l-423 -405 q13 1 25 1q54 0 102 -18q59 -22 106 -82q28 -37 50 -82t40 -91t34.5 -89.5t34.5 -76.5t39.5 -52.5t50.5 -19.5h28q34 0 48.5 -15t14.5 -53t-14.5 -53t-48.5 -15h-82q-45 0 -89 31t-83 108q-20 40 -37 83.5t-33 86t-33.5 81.5t-39.5 70q-24 35 -60 53.5t-83 18.5 q-41 0 -80 -14.5t-70 -44.5l-30 -29v-308h162q34 0 48.5 -15t14.5 -53t-14.5 -53t-48.5 -15h-424q-34 0 -48.5 15t-14.5 53z" />
<glyph unicode="L" d="M80 68q0 38 14.5 53t48.5 15h162v915h-162q-34 0 -48.5 15t-14.5 53t14.5 53t48.5 15h554q34 0 48.5 -15t14.5 -53t-14.5 -53t-48.5 -15h-242v-915h495v329q0 35 16.5 50t58.5 15t58.5 -15t16.5 -50v-397q0 -38 -14.5 -53t-48.5 -15h-894q-34 0 -48.5 15t-14.5 53z" />
<glyph unicode="M" d="M30 68q0 38 14.5 53t48.5 15h54l25 915h-49q-34 0 -48.5 15t-14.5 53t14.5 53t48.5 15h211q47 0 58 -33l222 -609l221 609q11 33 59 33h211q34 0 48.5 -15t14.5 -53t-14.5 -53t-48.5 -15h-50l26 -915h54q34 0 48.5 -15t14.5 -53t-14.5 -53t-48.5 -15h-314q-34 0 -48.5 15 t-14.5 53t14.5 53t48.5 15h111l-22 819l-204 -570q-13 -35 -35 -50t-57 -15t-57 15t-35 50l-205 570l-21 -819h111q34 0 48.5 -15t14.5 -53t-14.5 -53t-48.5 -15h-314q-34 0 -48.5 15t-14.5 53z" />
<glyph unicode="N" d="M70 1119q0 38 14.5 53t48.5 15h224q41 0 57 -28l474 -848v740h-117q-34 0 -48.5 15t-14.5 53t14.5 53t48.5 15h324q34 0 48.5 -15t14.5 -53t-14.5 -53t-48.5 -15h-57v-1014q0 -26 -18 -42.5t-57 -16.5q-29 0 -49 14.5t-35 40.5l-519 927v-824h137q34 0 48.5 -15t14.5 -53 t-14.5 -53t-48.5 -15h-354q-34 0 -48.5 15t-14.5 53t14.5 53t48.5 15h67v915h-77q-34 0 -48.5 15t-14.5 53z" />
<glyph unicode="O" d="M88 593q0 139 38 252.5t107 194.5t166 125t215 44t215 -44t166 -125t107 -194.5t38 -252.5t-38 -252.5t-107 -194t-166 -124.5t-215 -44t-215 44t-166 124.5t-107 194t-38 252.5zM246 593q0 -108 26.5 -194.5t74.5 -147t116 -93t151 -32.5t151 32.5t116 93t74.5 147 t26.5 194.5t-26.5 194.5t-74.5 147.5t-116 93.5t-151 32.5t-151 -32.5t-116 -93.5t-74.5 -147.5t-26.5 -194.5z" />
<glyph unicode="P" d="M80 68q0 38 14.5 53t48.5 15h162v915h-162q-34 0 -48.5 15t-14.5 53t14.5 53t48.5 15h547q101 0 179.5 -27.5t132.5 -77.5t82 -119.5t28 -154.5q0 -84 -28 -153.5t-82 -118.5t-132.5 -76t-179.5 -27h-235v-297h240q34 0 48.5 -15t14.5 -53t-14.5 -53t-48.5 -15h-552 q-34 0 -48.5 15t-14.5 53zM455 569h214q141 0 213 63.5t72 175.5q0 114 -72 178.5t-213 64.5h-214v-482z" />
<glyph unicode="Q" d="M88 618q0 135 38 244t107 186.5t166 119t215 41.5t215 -41.5t166 -119t107 -186.5t38 -244t-38 -244t-107 -186t-166 -118.5t-215 -41.5q-15 0 -29 0.5t-23 1.5l-129 -135q46 18 85.5 25t74.5 7t66 -5t60.5 -11t57 -11t56.5 -5q37 0 76 12t84 45q17 13 38.5 1.5 t38.5 -39.5q16 -26 17 -51t-22 -42q-62 -46 -113 -62.5t-99 -16.5q-35 0 -68.5 6t-69 13t-73 13t-80.5 6q-45 0 -102 -10.5t-123 -38.5q-8 -3 -16 -3q-12 0 -25 8q-22 12 -42 38t-25 48t8 36l180 204q-76 29 -137 80t-103.5 122t-65.5 160t-23 194zM246 618 q0 -104 26.5 -186t74.5 -139t116 -87t151 -30t151 30t116 87t74.5 139t26.5 186t-26.5 186.5t-74.5 139.5t-116 87t-151 30t-151 -30t-116 -87t-74.5 -139.5t-26.5 -186.5z" />
<glyph unicode="R" d="M80 68q0 38 14.5 53t48.5 15h122v915h-122q-34 0 -48.5 15t-14.5 53t14.5 53t48.5 15h506q96 0 170 -24.5t124.5 -68.5t76.5 -106.5t26 -137.5q0 -58 -19.5 -107t-55.5 -87t-87.5 -65.5t-114.5 -41.5q26 -12 48 -30t42 -40q25 -28 47.5 -61t42 -66.5t37.5 -66.5t35 -61 q24 -40 49 -64t56 -24h19q34 0 48.5 -15t14.5 -53t-14.5 -53t-48.5 -15h-70q-43 0 -85.5 30.5t-90.5 108.5q-20 33 -39 68t-38 69.5t-39 66t-41 58.5q-26 33 -53.5 55t-59.5 35t-69 18.5t-83 5.5h-62v-379h130q34 0 48.5 -15t14.5 -53t-14.5 -53t-48.5 -15h-402 q-34 0 -48.5 15t-14.5 53zM415 651h203q62 0 112 11t85 35t54 62t19 91q0 97 -67.5 149t-192.5 52h-213v-400z" />
<glyph unicode="S" d="M158 43v300q0 35 16.5 50t58.5 15q43 0 58 -42q41 -116 130 -178t221 -62q66 0 115.5 15t82.5 41.5t50 63.5t17 81q0 66 -33.5 105t-89.5 63q-46 19 -102 31.5t-115.5 24.5t-118.5 26t-110 37q-37 16 -68 39t-53.5 54t-35 72t-12.5 94q0 78 29 140.5t80.5 106t123 66.5 t156.5 23q91 0 172 -34.5t138 -91.5v61q0 35 16.5 50t58.5 15t58.5 -15t16.5 -50v-230q0 -35 -16.5 -50t-58.5 -15q-38 0 -52 26q-49 93 -136 139.5t-197 46.5q-112 0 -171.5 -52t-59.5 -136q0 -43 22 -70.5t59 -46.5q40 -20 93.5 -32t112.5 -23.5t120.5 -25t117.5 -35.5 q45 -18 84 -44t67.5 -63.5t45 -88t16.5 -117.5q0 -77 -27.5 -141.5t-81 -110.5t-132.5 -71.5t-182 -25.5q-100 0 -185.5 36t-148.5 107v-78q0 -35 -16.5 -50t-58.5 -15t-58.5 15t-16.5 50z" />
<glyph unicode="T" d="M122 742v377q0 38 14.5 53t48.5 15h858q34 0 48.5 -15t14.5 -53v-377q0 -35 -16.5 -50t-58.5 -15t-58.5 15t-16.5 50v309h-267v-915h236q34 0 48.5 -15t14.5 -53t-14.5 -53t-48.5 -15h-622q-34 0 -48.5 15t-14.5 53t14.5 53t48.5 15h236v915h-267v-309q0 -35 -16.5 -50 t-58.5 -15t-58.5 15t-16.5 50z" />
<glyph unicode="U" d="M70 1119q0 38 14.5 53t48.5 15h324q34 0 48.5 -15t14.5 -53t-14.5 -53t-48.5 -15h-112v-638q0 -78 16.5 -132.5t50 -89t84 -50t118.5 -15.5t118.5 15.5t84 50t50 89t16.5 132.5v638h-112q-34 0 -48.5 15t-14.5 53t14.5 53t48.5 15h324q34 0 48.5 -15t14.5 -53t-14.5 -53 t-48.5 -15h-62v-658q0 -107 -29 -185t-83 -129t-132 -76t-175 -25q-98 0 -175.5 25t-131.5 76t-83 129t-29 185v658h-62q-34 0 -48.5 15t-14.5 53z" />
<glyph unicode="V" d="M10 1119q0 38 14.5 53t48.5 15h374q34 0 48.5 -15t14.5 -53t-14.5 -53t-48.5 -15h-141l306 -884l309 884h-100q-34 0 -48.5 15t-14.5 53t14.5 53t48.5 15h334q34 0 48.5 -15t14.5 -53t-14.5 -53t-48.5 -15h-77l-359 -1008q-13 -35 -39 -50t-69 -15t-68.5 15t-37.5 50 l-356 1008h-76q-34 0 -48.5 15t-14.5 53z" />
<glyph unicode="W" d="M-10 1119q0 38 14.5 53t48.5 15h344q34 0 48.5 -15t14.5 -53t-14.5 -53t-48.5 -15h-146l100 -801l188 588q6 20 23 33.5t49 13.5q33 0 50 -10t23 -30l187 -595l104 801h-124q-34 0 -48.5 15t-14.5 53t14.5 53t48.5 15h324q34 0 48.5 -15t14.5 -53t-14.5 -53t-48.5 -15 h-54l-138 -1008q-5 -37 -26.5 -51t-59.5 -14t-64.5 15t-37.5 50l-185 581l-187 -581q-11 -35 -38.5 -50t-65.5 -15t-58.5 14.5t-25.5 50.5l-133 1008h-49q-34 0 -48.5 15t-14.5 53z" />
<glyph unicode="X" d="M50 68q0 38 14.5 53t48.5 15h62l349 483l-312 432h-69q-34 0 -48.5 15t-14.5 53t14.5 53t48.5 15h344q34 0 48.5 -15t14.5 -53t-14.5 -53t-48.5 -15h-89l221 -316l222 316h-60q-34 0 -48.5 15t-14.5 53t14.5 53t48.5 15h304q34 0 48.5 -15t14.5 -53t-14.5 -53t-48.5 -15 h-65l-309 -434l346 -481h58q34 0 48.5 -15t14.5 -53t-14.5 -53t-48.5 -15h-354q-34 0 -48.5 15t-14.5 53t14.5 53t48.5 15h109l-255 365l-261 -365h83q34 0 48.5 -15t14.5 -53t-14.5 -53t-48.5 -15h-324q-34 0 -48.5 15t-14.5 53z" />
<glyph unicode="Y" d="M60 1119q0 38 14.5 53t48.5 15h334q34 0 48.5 -15t14.5 -53t-14.5 -53t-48.5 -15h-93l250 -409l252 409h-65q-34 0 -48.5 15t-14.5 53t14.5 53t48.5 15h304q34 0 48.5 -15t14.5 -53t-14.5 -53t-48.5 -15h-68l-348 -559v-356h226q34 0 48.5 -15t14.5 -53t-14.5 -53 t-48.5 -15h-602q-34 0 -48.5 15t-14.5 53t14.5 53t48.5 15h226v356l-346 559h-70q-34 0 -48.5 15t-14.5 53z" />
<glyph unicode="Z" d="M167 68q0 14 4 24t10 19l659 940h-502v-249q0 -35 -16.5 -50t-58.5 -15t-58.5 15t-16.5 50v317q0 38 14.5 53t48.5 15h736q34 0 48.5 -15t14.5 -53q0 -25 -10 -39l-663 -944h532v269q0 35 16.5 50t58.5 15t58.5 -15t16.5 -50v-337q0 -38 -14.5 -53t-48.5 -15h-766 q-34 0 -48.5 15t-14.5 53z" />
<glyph unicode="[" d="M330 -325v1569q0 38 14.5 53t48.5 15h414q34 0 48.5 -15t14.5 -53t-14.5 -53t-48.5 -15h-327v-1433h327q34 0 48.5 -15t14.5 -53t-14.5 -53t-48.5 -15h-414q-34 0 -48.5 15t-14.5 53z" />
<glyph unicode="\" d="M199.5 1297.5q4.5 11.5 16.5 20t29 13t35 4.5q21 0 39.5 -7t25.5 -23l682 -1538q6 -15 1 -26.5t-17 -20t-28.5 -13t-34.5 -4.5q-21 0 -39.5 7t-25.5 23l-682 1538q-6 15 -1.5 26.5z" />
<glyph unicode="]" d="M358 -325q0 38 14.5 53t48.5 15h327v1433h-327q-34 0 -48.5 15t-14.5 53t14.5 53t48.5 15h414q34 0 48.5 -15t14.5 -53v-1569q0 -38 -14.5 -53t-48.5 -15h-414q-34 0 -48.5 15t-14.5 53z" />
<glyph unicode="^" d="M232 557q-1 11 6 24l308 591q10 18 24.5 27.5t43.5 9.5t43.5 -9.5t24.5 -27.5l308 -591q7 -13 6 -24t-8 -20t-18 -16.5t-24 -11.5q-27 -10 -56 -6t-39 24l-237 480l-237 -480q-10 -20 -39 -24t-56 6q-13 4 -24 11.5t-18 16.5t-8 20z" />
<glyph unicode="_" d="M-28 -325q0 45 6 56.5t17 11.5h1238q11 0 17 -11.5t6 -56.5t-6 -56.5t-17 -11.5h-1238q-11 0 -17 11.5t-6 56.5z" />
<glyph unicode="`" d="M265 1232.5q-1 12.5 4.5 31t20.5 45.5q16 28 29 42.5t24.5 19.5t23 2t24.5 -10l416 -230q17 -10 21.5 -27.5t-2.5 -34.5t-21.5 -27.5t-33.5 -4.5l-481 163q-10 3 -17 10.5t-8 20z" />
<glyph unicode="a" d="M135 270q0 84 32.5 143t88 95.5t129 53.5t155.5 17q81 0 157 -13t147 -38v85q0 97 -46.5 142.5t-159.5 45.5q-81 0 -162.5 -21.5t-144.5 -66.5q-23 -17 -47 -12t-46 36t-17.5 55.5t27.5 41.5q39 29 86 50.5t97.5 35t103 20t103.5 6.5q179 0 267.5 -84t88.5 -249v-398 q0 -79 66 -79h35q34 0 48.5 -15t14.5 -53t-14.5 -53t-48.5 -15h-64q-31 0 -59 7.5t-50.5 23.5t-39 40t-23.5 57q-79 -69 -174 -109.5t-206 -40.5q-75 0 -138 19.5t-109 57t-71.5 91.5t-25.5 124zM293 273q0 -73 50.5 -113.5t141.5 -40.5q107 0 196 44.5t163 120.5v109 q-69 23 -147 34t-156 11q-54 0 -99.5 -9t-78.5 -28.5t-51.5 -51t-18.5 -76.5z" />
<glyph unicode="b" d="M37 1244q0 38 14.5 53t48.5 15h189q34 0 48.5 -15t14.5 -53v-463q60 77 138.5 121t178.5 44q93 0 172 -33t136.5 -95.5t90.5 -152.5t33 -203t-33 -203t-90.5 -152.5t-136.5 -95.5t-172 -33q-100 0 -182.5 44.5t-144.5 125.5v-80q0 -38 -14.5 -53t-48.5 -15h-159 q-34 0 -48.5 15t-14.5 53t14.5 53t48.5 15h82v1040h-102q-34 0 -48.5 15t-14.5 53zM352 462q0 -80 23 -142t64 -105.5t97.5 -66t122.5 -22.5q68 0 121 25t89 69.5t55 106t19 135.5q0 73 -19 135t-55 106.5t-89 69.5t-121 25q-66 0 -122.5 -22.5t-97.5 -66t-64 -106 t-23 -141.5z" />
<glyph unicode="c" d="M127 462q0 104 35 192.5t98.5 153.5t152 101.5t196.5 36.5q91 0 165 -32.5t125 -92.5v60q0 35 16.5 50t58.5 15t58.5 -15t16.5 -50v-290q0 -35 -16.5 -50t-58.5 -15t-58.5 15t-16.5 50q0 45 -18 83t-53.5 65.5t-87.5 43t-121 15.5q-73 0 -134.5 -25t-105.5 -70 t-69 -106.5t-25 -134.5t23 -134.5t65.5 -106.5t102.5 -70t133 -25q92 0 178 28t158 83q26 20 49 15t44 -40q15 -24 15 -49q-1 -4 -1 -7q-2 -29 -31 -50q-81 -60 -189 -94t-223 -34q-110 0 -199 36.5t-152 101.5t-97 153.5t-34 192.5z" />
<glyph unicode="d" d="M127 437q0 108 33 193t90.5 144t136.5 90.5t172 31.5q100 0 178.5 -40.5t138.5 -115.5v436h-202q-34 0 -48.5 15t-14.5 53t14.5 53t48.5 15h289q34 0 48.5 -15t14.5 -53v-1108h82q34 0 48.5 -15t14.5 -53t-14.5 -53t-48.5 -15h-159q-34 0 -48.5 15t-14.5 53v80 q-62 -81 -144.5 -125.5t-182.5 -44.5q-93 0 -172 31.5t-136.5 90.5t-90.5 144t-33 193zM285 437q0 -68 19 -125t55 -98.5t89 -64.5t121 -23q66 0 122.5 21t97.5 60.5t64 97.5t23 132t-23 132t-64 97.5t-97.5 60.5t-122.5 21q-68 0 -121 -23t-89 -64.5t-55 -98.5t-19 -125z " />
<glyph unicode="e" d="M146 462q0 109 35.5 198.5t98.5 153t150.5 98t192.5 34.5q111 0 196 -34.5t143.5 -95.5t90.5 -145t38 -184q0 -34 -14.5 -48t-48.5 -14h-724q8 -151 83.5 -226.5t215.5 -75.5q101 0 196 23t164 63q32 18 53.5 3t34.5 -47q14 -32 6 -57.5t-41 -42.5q-39 -19 -86.5 -35 t-101 -27.5t-110.5 -18t-115 -6.5q-110 0 -195 33.5t-143 96t-88.5 152t-30.5 202.5zM314 565h611q-21 113 -95 174.5t-207 61.5q-125 0 -204.5 -62.5t-104.5 -173.5z" />
<glyph unicode="f" d="M187 68q0 38 14.5 53t48.5 15h198v572h-198q-34 0 -48.5 15t-14.5 53t14.5 53t48.5 15h198v123q0 82 23.5 147t68.5 110t110.5 69t149.5 24q71 0 138.5 -14t127.5 -37q27 -11 40 -32q9 -13 9 -32q0 -13 -4 -28q-10 -41 -29 -51.5t-45 -0.5q-59 23 -118 36t-119 13 q-106 0 -154 -57t-48 -160v-110h346q34 0 48.5 -15t14.5 -53t-14.5 -53t-48.5 -15h-346v-572h346q34 0 48.5 -15t14.5 -53t-14.5 -53t-48.5 -15h-694q-34 0 -48.5 15t-14.5 53z" />
<glyph unicode="g" d="M127 487q0 108 33 193t90.5 144t136.5 90.5t172 31.5q100 0 182.5 -44.5t144.5 -125.5v80q0 38 14.5 53t48.5 15h159q34 0 48.5 -15t14.5 -53t-14.5 -53t-48.5 -15h-82v-823q0 -90 -27.5 -160.5t-80.5 -119t-130 -74.5t-175 -26q-87 0 -175 15t-167 45q-27 11 -35.5 33 t4.5 60t33.5 50t45.5 1q69 -29 145 -42.5t149 -13.5q67 0 116.5 17.5t82 50t48.5 77.5t16 100v206q-60 -75 -138.5 -115.5t-178.5 -40.5q-93 0 -172 31.5t-136.5 90.5t-90.5 144t-33 193zM285 487q0 -68 19 -125t55 -98.5t89 -64.5t121 -23q66 0 122.5 21t97.5 60.5t64 97.5 t23 132t-23 132t-64 97.5t-97.5 60.5t-122.5 21q-68 0 -121 -23t-89 -64.5t-55 -98.5t-19 -125z" />
<glyph unicode="h" d="M77 1244q0 38 14.5 53t48.5 15h179q34 0 48.5 -15t14.5 -53v-498q65 97 150 148.5t185 51.5q69 0 124 -23t93.5 -65t59 -102.5t20.5 -135.5v-484h82q34 0 48.5 -15t14.5 -53t-14.5 -53t-48.5 -15h-324q-34 0 -48.5 15t-14.5 53t14.5 53t48.5 15h92v469q0 43 -10 78.5 t-30 61t-50.5 39.5t-71.5 14q-64 0 -122 -28t-102 -78t-70 -119t-26 -151v-286h92q34 0 48.5 -15t14.5 -53t-14.5 -53t-48.5 -15h-324q-34 0 -48.5 15t-14.5 53t14.5 53t48.5 15h82v1040h-92q-34 0 -48.5 15t-14.5 53z" />
<glyph unicode="i" d="M187 68q0 38 14.5 53t48.5 15h313v652h-253q-34 0 -48.5 15t-14.5 53t14.5 53t48.5 15h340q34 0 48.5 -15t14.5 -53v-720h321q34 0 48.5 -15t14.5 -53t-14.5 -53t-48.5 -15h-784q-34 0 -48.5 15t-14.5 53zM523 1168v130q0 35 19 50t76 15t76 -15t19 -50v-130 q0 -35 -19 -50t-76 -15t-76 15t-19 50z" />
<glyph unicode="j" d="M191 -264q-2 6 -2 13q0 19 14 45q19 36 42.5 43.5t46.5 -7.5q66 -43 140 -71t144 -28q50 0 84 13.5t54.5 41t29.5 69t9 96.5v837h-423q-34 0 -48.5 15t-14.5 53t14.5 53t48.5 15h510q34 0 48.5 -15t14.5 -53v-918q0 -86 -18.5 -152t-58 -110.5t-101.5 -67.5t-149 -23 q-43 0 -89.5 8.5t-92.5 23.5t-90 35.5t-81 44.5q-25 16 -32 39zM713 1168v130q0 35 19 50t76 15t76 -15t19 -50v-130q0 -35 -19 -50t-76 -15t-76 15t-19 50z" />
<glyph unicode="k" d="M67 1244q0 38 14.5 53t48.5 15h218q34 0 48.5 -15t14.5 -53v-792l381 336h-71q-34 0 -48.5 15t-14.5 53t14.5 53t48.5 15h334q34 0 48.5 -15t14.5 -53t-14.5 -53t-48.5 -15h-59l-294 -259l336 -393h58q34 0 48.5 -15t14.5 -53t-14.5 -53t-48.5 -15h-334q-34 0 -48.5 15 t-14.5 53t14.5 53t48.5 15h82l-251 298l-182 -160v-138h63q34 0 48.5 -15t14.5 -53t-14.5 -53t-48.5 -15h-324q-34 0 -48.5 15t-14.5 53t14.5 53t48.5 15h111v1040h-131q-34 0 -48.5 15t-14.5 53z" />
<glyph unicode="l" d="M177 68q0 38 14.5 53t48.5 15h313v1040h-273q-34 0 -48.5 15t-14.5 53t14.5 53t48.5 15h360q34 0 48.5 -15t14.5 -53v-1108h321q34 0 48.5 -15t14.5 -53t-14.5 -53t-48.5 -15h-784q-34 0 -48.5 15t-14.5 53z" />
<glyph unicode="m" d="M-4 68q0 38 14.5 53t48.5 15h82v652h-82q-34 0 -48.5 15t-14.5 53t14.5 53t48.5 15h149q34 0 48.5 -15t14.5 -53v-99q44 97 104 143t129 46q33 0 62.5 -11t54.5 -33.5t43.5 -56.5t27.5 -80q45 92 103 136.5t127 44.5q43 0 80.5 -16t65.5 -49t44.5 -83.5t16.5 -119.5v-542 h62q34 0 48.5 -15t14.5 -53t-14.5 -53t-48.5 -15h-149q-34 0 -48.5 15t-14.5 53v592q0 67 -22 102.5t-73 35.5q-36 0 -67.5 -25t-55 -70t-37.5 -107.5t-14 -138.5v-321h57q34 0 48.5 -15t14.5 -53t-14.5 -53t-48.5 -15h-144q-34 0 -48.5 15t-14.5 53v592q0 67 -22 102.5 t-73 35.5q-36 0 -67.5 -25t-55 -70t-37.5 -107.5t-14 -138.5v-321h52q34 0 48.5 -15t14.5 -53t-14.5 -53t-48.5 -15h-284q-34 0 -48.5 15t-14.5 53z" />
<glyph unicode="n" d="M77 856q0 38 14.5 53t48.5 15h179q34 0 48.5 -15t14.5 -53v-120q66 103 154 156.5t191 53.5q69 0 124 -23t93.5 -65t59 -102.5t20.5 -135.5v-484h82q34 0 48.5 -15t14.5 -53t-14.5 -53t-48.5 -15h-324q-34 0 -48.5 15t-14.5 53t14.5 53t48.5 15h92v469q0 43 -10 78.5 t-30 61t-50.5 39.5t-71.5 14q-64 0 -122 -28t-102 -78t-70 -119t-26 -151v-286h92q34 0 48.5 -15t14.5 -53t-14.5 -53t-48.5 -15h-324q-34 0 -48.5 15t-14.5 53t14.5 53t48.5 15h82v652h-102q-34 0 -48.5 15t-14.5 53z" />
<glyph unicode="o" d="M120 462q0 106 37.5 194.5t103.5 153t156.5 100.5t196.5 36t196.5 -36t156.5 -100.5t103.5 -153t37.5 -194.5t-37.5 -194.5t-103.5 -153t-156.5 -100.5t-196.5 -36t-196.5 36t-156.5 100.5t-103.5 153t-37.5 194.5zM278 462q0 -73 24.5 -134.5t68.5 -106.5t106 -70 t137 -25t137 25t106 70t68.5 106.5t24.5 134.5t-24.5 134.5t-68.5 106.5t-106 70t-137 25t-137 -25t-106 -70t-68.5 -106.5t-24.5 -134.5z" />
<glyph unicode="p" d="M27 -325q0 38 14.5 53t48.5 15h112v1045h-82q-34 0 -48.5 15t-14.5 53t14.5 53t48.5 15h159q34 0 48.5 -15t14.5 -53v-80q62 81 144.5 125.5t182.5 44.5q93 0 172 -31.5t136.5 -90.5t90.5 -144t33 -193t-33 -193t-90.5 -144t-136.5 -90.5t-172 -31.5q-100 0 -178.5 40.5 t-138.5 115.5v-441h222q34 0 48.5 -15t14.5 -53t-14.5 -53t-48.5 -15h-484q-34 0 -48.5 15t-14.5 53zM352 487q0 -74 23 -132t64 -97.5t97.5 -60.5t122.5 -21q68 0 121 23t89 64.5t55 98.5t19 125t-19 125t-55 98.5t-89 64.5t-121 23q-66 0 -122.5 -21t-97.5 -60.5 t-64 -97.5t-23 -132z" />
<glyph unicode="q" d="M127 487q0 108 33 193t90.5 144t136.5 90.5t172 31.5q100 0 182.5 -44.5t144.5 -125.5v80q0 38 14.5 53t48.5 15h159q34 0 48.5 -15t14.5 -53t-14.5 -53t-48.5 -15h-82v-1045h112q34 0 48.5 -15t14.5 -53t-14.5 -53t-48.5 -15h-484q-34 0 -48.5 15t-14.5 53t14.5 53 t48.5 15h222v441q-60 -75 -138.5 -115.5t-178.5 -40.5q-93 0 -172 31.5t-136.5 90.5t-90.5 144t-33 193zM285 487q0 -68 19 -125t55 -98.5t89 -64.5t121 -23q66 0 122.5 21t97.5 60.5t64 97.5t23 132t-23 132t-64 97.5t-97.5 60.5t-122.5 21q-68 0 -121 -23t-89 -64.5 t-55 -98.5t-19 -125z" />
<glyph unicode="r" d="M147 68q0 38 14.5 53t48.5 15h157v652h-127q-34 0 -48.5 15t-14.5 53t14.5 53t48.5 15h204q34 0 48.5 -15t14.5 -53v-202q37 67 84.5 121t101.5 92t112 58.5t115 20.5q78 0 146 -40q29 -17 37 -42q3 -9 3 -20q0 -19 -9 -42q-14 -36 -35.5 -51t-50.5 2q-50 27 -105 27 q-45 0 -91.5 -16.5t-90 -46t-81 -71t-66 -91.5t-44.5 -107t-16 -118v-194h337q34 0 48.5 -15t14.5 -53t-14.5 -53t-48.5 -15h-644q-34 0 -48.5 15t-14.5 53z" />
<glyph unicode="s" d="M179 43v240q0 35 16.5 50t58.5 15q22 0 34 -10t20 -31q37 -97 121 -140.5t223 -43.5q120 0 180 42.5t60 111.5q0 36 -23 57.5t-62 34.5q-44 15 -102 22t-122 14t-127.5 18t-117.5 32q-34 13 -62 32t-48.5 45t-32 60t-11.5 78q0 67 27 118.5t74.5 86.5t112 53t140.5 18 q100 0 179.5 -29.5t136.5 -80.5v45q0 35 16.5 50t58.5 15t58.5 -15t16.5 -50v-190q0 -35 -16.5 -50t-58.5 -15q-34 0 -48 26q-23 43 -55.5 72t-75 46t-93.5 24t-109 7q-97 0 -151.5 -34t-54.5 -97q0 -33 21.5 -53t59.5 -32q42 -14 98 -20.5t118 -13t125 -16t117 -29.5 q37 -14 68 -33.5t53.5 -47t35 -64t12.5 -84.5q0 -67 -25.5 -122t-75 -94.5t-122 -61t-165.5 -21.5q-109 0 -190.5 30t-142.5 91v-56q0 -35 -16.5 -50t-58.5 -15t-58.5 15t-16.5 50z" />
<glyph unicode="t" d="M117 776q0 38 14.5 53t48.5 15h203v300q0 35 16.5 50t58.5 15t58.5 -15t16.5 -50v-300h411q34 0 48.5 -15t14.5 -53t-14.5 -53t-48.5 -15h-411v-364q0 -55 9 -96.5t29.5 -69t54.5 -41t84 -13.5q70 0 144 28t140 71q23 15 46.5 7.5t42.5 -43.5q14 -26 14 -45q0 -8 -2 -14 q-7 -22 -32 -38q-38 -24 -81.5 -44.5t-89.5 -35.5t-92.5 -23.5t-89.5 -8.5q-87 0 -149 23t-101.5 67.5t-58 110.5t-18.5 152v377h-203q-34 0 -48.5 15t-14.5 53z" />
<glyph unicode="u" d="M72 856q0 38 14.5 53t48.5 15h169q34 0 48.5 -15t14.5 -53v-537q0 -43 10 -78.5t30 -61t50.5 -39.5t71.5 -14q64 0 122 28t102 78t70 119t26 151v286h-142q-34 0 -48.5 15t-14.5 53t14.5 53t48.5 15h229q34 0 48.5 -15t14.5 -53v-720h82q34 0 48.5 -15t14.5 -53 t-14.5 -53t-48.5 -15h-159q-34 0 -48.5 14.5t-14.5 52.5v121q-66 -103 -154 -156.5t-191 -53.5q-69 0 -124 23t-93.5 65t-59 102.5t-20.5 135.5v484h-82q-34 0 -48.5 15t-14.5 53z" />
<glyph unicode="v" d="M50 856q0 38 14.5 53t48.5 15h354q34 0 48.5 -15t14.5 -53t-14.5 -53t-48.5 -15h-128l273 -652l276 652h-87q-34 0 -48.5 15t-14.5 53t14.5 53t48.5 15h314q34 0 48.5 -15t14.5 -53t-14.5 -53t-48.5 -15h-63l-323 -745q-14 -34 -41 -49.5t-77 -15.5t-76 16t-40 49 l-320 745h-62q-34 0 -48.5 15t-14.5 53z" />
<glyph unicode="w" d="M-10 856q0 38 14.5 53t48.5 15h294q34 0 48.5 -15t14.5 -53t-14.5 -53t-48.5 -15h-123l144 -582l167 464q7 20 25 33.5t51 13.5q34 0 52 -10t25 -30l166 -471l148 582h-101q-34 0 -48.5 15t-14.5 53t14.5 53t48.5 15h274q34 0 48.5 -15t14.5 -53t-14.5 -53t-48.5 -15h-24 l-197 -745q-10 -36 -29.5 -50.5t-57.5 -14.5q-43 0 -67.5 15.5t-36.5 49.5l-153 434l-155 -434q-12 -35 -37.5 -50t-68.5 -15q-38 0 -57 15t-28 50l-193 745h-18q-34 0 -48.5 15t-14.5 53z" />
<glyph unicode="x" d="M70 68q0 38 14.5 53t48.5 15h50l325 341l-294 311h-71q-34 0 -48.5 15t-14.5 53t14.5 53t48.5 15h344q34 0 48.5 -15t14.5 -53t-14.5 -53t-48.5 -15h-76l212 -230l213 230h-55q-34 0 -48.5 15t-14.5 53t14.5 53t48.5 15h304q34 0 48.5 -15t14.5 -53t-14.5 -53t-48.5 -15 h-65l-297 -313l321 -339h51q34 0 48.5 -15t14.5 -53t-14.5 -53t-48.5 -15h-344q-34 0 -48.5 15t-14.5 53t14.5 53t48.5 15h96l-240 258l-239 -258h79q34 0 48.5 -15t14.5 -53t-14.5 -53t-48.5 -15h-314q-34 0 -48.5 15t-14.5 53z" />
<glyph unicode="y" d="M50 856q0 38 14.5 53t48.5 15h354q34 0 48.5 -15t14.5 -53t-14.5 -53t-48.5 -15h-128l282 -562l269 562h-89q-34 0 -48.5 15t-14.5 53t14.5 53t48.5 15h314q34 0 48.5 -15t14.5 -53t-14.5 -53t-48.5 -15h-62l-409 -838q-48 -98 -94 -166t-99 -111t-116.5 -63.5 t-145.5 -23.5h-4q-26 0 -45 13q-19 14 -23 54q-1 10 -1 18q0 30 12 45q14 19 41 21q69 4 117.5 18.5t88.5 50.5t78.5 99.5t88.5 164.5l-366 718h-63q-34 0 -48.5 15t-14.5 53z" />
<glyph unicode="z" d="M178 68q0 30 14 45l611 675h-455v-149q0 -35 -16.5 -50t-58.5 -15t-58.5 15t-16.5 50v217q0 38 14.5 53t48.5 15h716q34 0 48.5 -15t14.5 -53q0 -29 -15 -46l-610 -674h485v172q0 35 16.5 50t58.5 15t58.5 -15t16.5 -50v-240q0 -38 -14.5 -53t-48.5 -15h-746 q-34 0 -48.5 15t-14.5 53z" />
<glyph unicode="{" d="M207 481q0 38 14.5 53t48.5 15q111 0 163 56t52 165v169q0 190 93.5 281.5t268.5 91.5q34 0 48.5 -15t14.5 -53t-14.5 -53t-48.5 -15q-56 0 -96.5 -13.5t-66 -43.5t-37.5 -77.5t-12 -114.5v-167q0 -92 -37 -163t-110 -115q73 -44 110 -115.5t37 -163.5v-211 q0 -67 12 -114.5t37.5 -77.5t66 -43.5t96.5 -13.5q34 0 48.5 -15t14.5 -53t-14.5 -53t-48.5 -15q-175 0 -268.5 91t-93.5 282v213q0 109 -52 164.5t-163 55.5q-34 0 -48.5 15t-14.5 53z" />
<glyph unicode="|" d="M539 -350v1619q0 35 16.5 50t58.5 15t58.5 -15t16.5 -50v-1619q0 -35 -16.5 -50t-58.5 -15t-58.5 15t-16.5 50z" />
<glyph unicode="}" d="M318 -325q0 38 14.5 53t48.5 15q112 0 162 57.5t50 191.5v211q0 92 37 163.5t110 115.5q-73 44 -110 115t-37 163v167q0 134 -50 191.5t-162 57.5q-34 0 -48.5 15t-14.5 53t14.5 53t48.5 15q175 0 268.5 -91.5t93.5 -281.5v-169q0 -109 52 -165t163 -56q34 0 48.5 -15 t14.5 -53t-14.5 -53t-48.5 -15q-111 0 -163 -55.5t-52 -164.5v-213q0 -191 -93.5 -282t-268.5 -91q-34 0 -48.5 15t-14.5 53z" />
<glyph unicode="~" d="M153.5 565.5q-0.5 21.5 16.5 35.5q64 56 124 77.5t118 21.5q54 0 105.5 -13.5t102 -29.5t100.5 -29.5t100 -13.5q42 0 84 13t86 45q17 13 36.5 3t33.5 -34q14 -23 14.5 -44.5t-16.5 -35.5q-65 -56 -125 -77.5t-117 -21.5q-54 0 -105.5 13.5t-102 29.5t-100.5 29.5 t-100 13.5q-42 0 -84 -13t-86 -45q-17 -13 -36.5 -3t-33.5 34q-14 23 -14.5 44.5z" />
<glyph unicode="&#xa0;" />
<glyph unicode="&#xa1;" d="M460 1055q0 32 12 60t33 49t49 33t60 12t60 -12t49 -33t33 -49t12 -60t-12 -60t-33 -49t-49 -33t-60 -12t-60 12t-49 33t-33 49t-12 60zM508 28l49 647q3 48 57 48q26 0 41 -12.5t17 -35.5l48 -647q4 -50 -41 -50h-130q-45 0 -41 50z" />
<glyph unicode="&#xa2;" d="M127 602q0 96 30 178.5t84.5 146t131.5 104t171 51.5v165q0 35 16.5 50t53.5 15t53.5 -15t16.5 -50v-168q132 -23 215 -118v60q0 35 16.5 50t58.5 15t58.5 -15t16.5 -50v-290q0 -35 -16.5 -50t-58.5 -15t-58.5 15t-16.5 50q0 80 -54.5 134.5t-160.5 68.5v-663 q72 9 138 35.5t123 70.5q26 20 49 15t44 -40q17 -27 14.5 -56t-31.5 -50q-68 -51 -155 -83t-182 -42v-181q0 -35 -16.5 -50t-53.5 -15t-53.5 15t-16.5 50v181q-96 11 -173 51.5t-131 104t-83.5 146.5t-29.5 179zM285 602q0 -65 18 -121t52 -99t82 -72t107 -39v659 q-58 -12 -106 -41t-82 -71.5t-52.5 -97.5t-18.5 -118z" />
<glyph unicode="&#xa3;" d="M204 51q-5 25 11 41q64 58 105.5 107.5t64 95.5t29 92t0.5 97h-141q-34 0 -48.5 15t-14.5 53t14.5 53t48.5 15h95q-15 30 -31 60.5t-29 63t-21.5 67t-8.5 73.5q0 69 24.5 128.5t69 103t107 68.5t139.5 25q94 0 175.5 -28t147.5 -76q21 -15 21 -54v-127q0 -35 -16.5 -50 t-58.5 -15t-58.5 15t-16.5 50v90q-36 22 -85.5 34.5t-109.5 12.5q-43 0 -77 -14t-57.5 -38t-36 -56t-12.5 -69q0 -35 10 -66.5t25 -63t33 -64.5t33 -70h310q34 0 48.5 -15t14.5 -53t-14.5 -53t-48.5 -15h-278q15 -197 -141 -352q40 14 74.5 19.5t63.5 5.5q34 0 63.5 -5.5 t56.5 -11.5t52.5 -11.5t52.5 -5.5q33 0 69.5 12t81.5 44q15 11 36.5 2.5t38.5 -35.5q19 -27 15.5 -52.5t-20.5 -37.5q-62 -46 -112 -63t-95 -17q-33 0 -64.5 6t-64.5 13.5t-69 13.5t-77 6q-46 0 -100.5 -10.5t-120.5 -38.5q-20 -8 -40 1.5t-38 32.5q-20 26 -25 51z" />
<glyph unicode="&#xa5;" d="M60 1119q0 38 14.5 53t48.5 15h334q34 0 48.5 -15t14.5 -53t-14.5 -53t-48.5 -15h-93l250 -409l252 409h-65q-34 0 -48.5 15t-14.5 53t14.5 53t48.5 15h304q34 0 48.5 -15t14.5 -53t-14.5 -53t-48.5 -15h-68l-144 -231h122q34 0 48.5 -15t14.5 -53t-14.5 -53t-48.5 -15 h-207l-108 -174h295q34 0 48.5 -15t14.5 -53t-14.5 -53t-48.5 -15h-306v-238h226q34 0 48.5 -15t14.5 -53t-14.5 -53t-48.5 -15h-602q-34 0 -48.5 15t-14.5 53t14.5 53t48.5 15h226v238h-306q-34 0 -48.5 15t-14.5 53t14.5 53t48.5 15h295l-108 174h-207q-34 0 -48.5 15 t-14.5 53t14.5 53t48.5 15h123l-143 231h-70q-34 0 -48.5 15t-14.5 53z" />
<glyph unicode="&#xa6;" d="M539 269q0 35 16.5 50t58.5 15t58.5 -15t16.5 -50v-619q0 -35 -16.5 -50t-58.5 -15t-58.5 15t-16.5 50v619zM539 650v619q0 35 16.5 50t58.5 15t58.5 -15t16.5 -50v-619q0 -35 -16.5 -50t-58.5 -15t-58.5 15t-16.5 50z" />
<glyph unicode="&#xa7;" d="M179 629q0 67 35.5 116.5t102.5 98.5q-17 48 -17 103q0 52 17.5 96.5t53 76t87.5 49.5t121 18h346q34 0 48.5 -15t14.5 -53v-197q0 -35 -16.5 -50t-58.5 -15t-58.5 15t-16.5 50v129h-239q-72 0 -106.5 -27.5t-34.5 -80.5q0 -54 33.5 -96.5t96.5 -80.5l294 -182 q78 -48 122.5 -108.5t44.5 -147.5q0 -34 -9 -62.5t-27 -54.5t-43.5 -50t-58.5 -48q17 -49 17 -103q0 -53 -17.5 -97t-53 -75.5t-87.5 -49.5t-121 -18h-346q-34 0 -48.5 15t-14.5 53v217q0 35 16.5 50t58.5 15t58.5 -15t16.5 -50v-149h239q72 0 106.5 27.5t34.5 80.5 q0 54 -33.5 96.5t-96.5 80.5l-294 182q-78 48 -122.5 108.5t-44.5 147.5zM337 625q0 -42 26 -71t74 -59l294 -182q57 -35 102 -80q29 23 43.5 46.5t14.5 52.5q0 42 -26 71t-74 59l-294 182q-29 18 -55 37.5t-48 41.5q-28 -22 -42.5 -45.5t-14.5 -52.5z" />
<glyph unicode="&#xa8;" d="M269 1195q0 26 10 48.5t27 39.5t39.5 27t48.5 10t48.5 -10t39.5 -27t27 -39.5t10 -48.5t-10 -48.5t-27 -39.5t-39.5 -27t-48.5 -10t-48.5 10t-39.5 27t-27 39.5t-10 48.5zM709 1195q0 26 10 48.5t27 39.5t39.5 27t48.5 10t48.5 -10t39.5 -27t27 -39.5t10 -48.5t-10 -48.5 t-27 -39.5t-39.5 -27t-48.5 -10t-48.5 10t-39.5 27t-27 39.5t-10 48.5z" />
<glyph unicode="&#xa9;" d="M36 594q0 129 42.5 241t119 195t182.5 131t234 48q127 0 233.5 -48t183 -131t119 -195t42.5 -241t-42.5 -241t-119 -195.5t-183 -131.5t-233.5 -48q-128 0 -234 48t-182.5 131.5t-119 195.5t-42.5 241zM158 594q0 -107 33 -198t93 -157t144 -103.5t186 -37.5t186 37.5 t144 103.5t93 157t33 198t-33 198t-93 157t-144 103t-186 37t-186 -37t-144 -103t-93 -157t-33 -198zM315 593q0 81 23.5 145t65.5 108t99.5 67.5t125.5 23.5q45 0 91.5 -10t88.5 -30q29 -14 37.5 -34t-3.5 -52t-30.5 -37.5t-43.5 5.5q-36 17 -69 24.5t-71 7.5t-71 -13.5 t-57.5 -41t-38.5 -68.5t-14 -95t14 -95t38.5 -68.5t57.5 -41t71 -13.5t71 7.5t69 24.5q25 11 43.5 5.5t30.5 -37.5t3.5 -52t-37.5 -34q-42 -20 -88.5 -30t-91.5 -10q-68 0 -125.5 23.5t-99.5 67.5t-65.5 108t-23.5 145z" />
<glyph unicode="&#xaa;" d="M242 687q0 64 24 110t66 74.5t97.5 42t118.5 13.5t121 -6.5t113 -21.5v51q0 60 -34 95t-114 35q-120 0 -232 -65q-19 -11 -38.5 -6t-35.5 33q-19 32 -15.5 53t22.5 33q62 39 141.5 60t157.5 21q141 0 212 -67t71 -188v-297q0 -31 12.5 -43t37.5 -12h17q26 0 37.5 -14.5 t11.5 -46.5t-11.5 -45t-37.5 -13h-49q-48 0 -88 22t-53 69q-60 -51 -129.5 -80t-152.5 -29q-58 0 -107.5 14t-85.5 42t-56.5 69.5t-20.5 96.5zM383 690q0 -49 36 -74.5t97 -25.5q78 0 143.5 30t122.5 87v69q-53 12 -108 18.5t-115 6.5q-39 0 -71 -6t-55.5 -19t-36.5 -34 t-13 -52z" />
<glyph unicode="&#xab;" d="M252 548q-14 24 0 48l198 326q13 21 39 23.5t51 -8.5q13 -6 24 -14t17 -18.5t6.5 -22.5t-7.5 -25l-174 -285l174 -285q8 -13 7.5 -25t-6.5 -22.5t-17 -18.5t-24 -14q-25 -11 -51 -8.5t-39 23.5zM652 548q-14 24 0 48l198 326q13 21 39 23.5t51 -8.5q13 -6 24 -14 t17 -18.5t6.5 -22.5t-7.5 -25l-174 -285l174 -285q8 -13 7.5 -25t-6.5 -22.5t-17 -18.5t-24 -14q-25 -11 -51 -8.5t-39 23.5z" />
<glyph unicode="&#xac;" d="M140 777q0 38 14.5 53t48.5 15h812q34 0 48.5 -15t14.5 -53v-394q0 -35 -16.5 -50t-58.5 -15t-58.5 15t-16.5 50v326h-725q-34 0 -48.5 15t-14.5 53z" />
<glyph unicode="&#xad;" d="M170 582q0 38 14.5 53t48.5 15h762q34 0 48.5 -15t14.5 -53t-14.5 -53t-48.5 -15h-762q-34 0 -48.5 15t-14.5 53z" />
<glyph unicode="&#xae;" d="M36 594q0 129 42.5 241t119 195t182.5 131t234 48q127 0 233.5 -48t183 -131t119 -195t42.5 -241t-42.5 -241t-119 -195.5t-183 -131.5t-233.5 -48q-128 0 -234 48t-182.5 131.5t-119 195.5t-42.5 241zM158 594q0 -107 33 -198t93 -157t144 -103.5t186 -37.5t186 37.5 t144 103.5t93 157t33 198t-33 198t-93 157t-144 103t-186 37t-186 -37t-144 -103t-93 -157t-33 -198zM385 335v519q0 34 15.5 48.5t49.5 14.5h187q55 0 100 -16.5t76.5 -46t48.5 -70t17 -89.5q0 -75 -38 -126.5t-107 -74.5l107 -116q23 -25 26.5 -48t-22.5 -46 q-24 -22 -48 -19t-41 23l-158 182h-89v-135q0 -35 -14 -50t-49 -15t-48 15t-13 50zM509 587h106q68 0 101 28.5t33 79.5q0 49 -31 77t-94 28h-115v-213z" />
<glyph unicode="&#xaf;" d="M270 1178q0 38 14.5 53t48.5 15h562q34 0 48.5 -15t14.5 -53t-14.5 -53t-48.5 -15h-562q-34 0 -48.5 15t-14.5 53z" />
<glyph unicode="&#xb0;" d="M246 929q0 58 22 109t60 89t89 60t109 22t109 -22t89 -60t60 -89t22 -109t-22 -109t-60 -89t-89 -60t-109 -22t-109 22t-89 60t-60 89t-22 109zM381 929q0 -30 11.5 -56.5t31 -46t46 -31t56.5 -11.5t56.5 11.5t46 31t31 46t11.5 56.5t-11.5 56.5t-31 46t-46 31 t-56.5 11.5t-56.5 -11.5t-46 -31t-31 -46t-11.5 -56.5z" />
<glyph unicode="&#xb1;" d="M170 182q0 38 14.5 53t48.5 15h762q34 0 48.5 -15t14.5 -53t-14.5 -53t-48.5 -15h-762q-34 0 -48.5 15t-14.5 53zM170 742q0 38 14.5 53t48.5 15h313v253q0 34 15 48.5t53 14.5t53 -14.5t15 -48.5v-253h313q34 0 48.5 -15t14.5 -53t-14.5 -53t-48.5 -15h-313v-253 q0 -34 -15 -48.5t-53 -14.5t-53 14.5t-15 48.5v253h-313q-34 0 -48.5 15t-14.5 53z" />
<glyph unicode="&#xb2;" d="M288 555q0 22 8.5 37.5t22.5 27.5l332 280q54 46 82 86.5t28 91.5q0 57 -39 92t-115 35q-43 0 -85 -10.5t-76 -28.5v-103q0 -25 -15 -38t-53 -13q-37 0 -52 13t-15 38v147q0 27 21 42q60 40 136 61t148 21q67 0 119.5 -18t89.5 -51.5t56.5 -81t19.5 -105.5 q0 -40 -10.5 -75t-31 -68t-51 -64.5t-70.5 -64.5l-239 -198h322v78q0 25 15 38t53 13q37 0 52 -13t15 -38v-150q0 -53 -50 -53h-571q-24 0 -35.5 18.5t-11.5 53.5z" />
<glyph unicode="&#xb3;" d="M302.5 562.5q-0.5 21.5 7.5 44.5q9 24 25.5 39t42.5 4q49 -25 106 -40.5t114 -15.5q90 0 139 32.5t49 93.5q0 35 -13.5 58t-37.5 37t-58 19.5t-75 5.5h-52q-24 0 -34 17.5t-10 44.5q0 26 10 44.5t34 18.5h39q81 0 125.5 27.5t44.5 93.5q0 60 -44.5 89.5t-121.5 29.5 q-42 0 -78.5 -7.5t-68.5 -21.5v-63q0 -25 -15 -38t-53 -13q-37 0 -52 13t-15 38v110q0 29 21 42q60 35 132 52t140 17q69 0 123.5 -17.5t93 -49t58.5 -75.5t20 -96q0 -63 -29 -107.5t-83 -73.5q64 -22 101.5 -71t37.5 -125q0 -58 -20 -105t-60 -80t-100 -51t-141 -18 q-71 0 -145 15.5t-136 49.5q-21 11 -21.5 32.5z" />
<glyph unicode="&#xb4;" d="M399.5 1105.5q4.5 17.5 21.5 27.5l416 230q13 7 24.5 10t23 -2t24.5 -19.5t29 -42.5q15 -27 20.5 -45.5t4.5 -31t-8 -20t-17 -10.5l-481 -163q-19 -6 -33.5 4.5t-21.5 27.5t-2.5 34.5z" />
<glyph unicode="&#xb6;" d="M131 844q0 81 30.5 144.5t86 108t132 67.5t168.5 23h506q34 0 48.5 -15t14.5 -53t-14.5 -53t-48.5 -15h-68v-1401q0 -35 -16.5 -50t-58.5 -15t-58.5 15t-16.5 50v1401h-160v-1401q0 -35 -16.5 -50t-58.5 -15t-58.5 15t-16.5 50v852q-87 3 -160 27t-125 68t-81 106.5 t-29 140.5z" />
<glyph unicode="&#xb7;" d="M445 582q0 35 13.5 65.5t36.5 53.5t53.5 36.5t65.5 13.5t65.5 -13.5t53.5 -36.5t36.5 -53.5t13.5 -65.5t-13.5 -65.5t-36.5 -53.5t-53.5 -36.5t-65.5 -13.5t-65.5 13.5t-53.5 36.5t-36.5 53.5t-13.5 65.5z" />
<glyph unicode="&#xb8;" d="M353.5 -396q-2.5 20 5.5 40t24 33t35 5q39 -15 90.5 -24.5t102.5 -9.5q50 0 76.5 17.5t26.5 49.5q0 42 -38 57.5t-107 10.5q-7 0 -14 1t-13 5.5t-9.5 13t-3.5 22.5v203h135v-141q52 1 90.5 -12t64 -36t38.5 -54t13 -66q0 -42 -15.5 -77t-46.5 -60.5t-77.5 -39.5 t-109.5 -14q-67 0 -131 12t-116 36q-18 8 -20.5 28z" />
<glyph unicode="&#xb9;" d="M315 546q0 34 13 48t37 14h204v571l-174 -57q-50 -17 -69 40q-22 61 28 77l284 91q27 9 46.5 -1.5t19.5 -36.5v-684h194q24 0 36.5 -14t12.5 -48t-12.5 -48.5t-36.5 -14.5h-533q-24 0 -37 14.5t-13 48.5z" />
<glyph unicode="&#xba;" d="M235 837q0 81 29 149t79.5 117.5t120 77.5t150.5 28t150.5 -28t120 -77.5t79.5 -117.5t29 -149t-29 -149.5t-79.5 -118t-120 -77t-150.5 -27.5t-150.5 27.5t-120 77t-79.5 118t-29 149.5zM375 837q0 -53 17 -97t48.5 -75.5t75.5 -49.5t98 -18t98 18t75.5 49.5t48.5 75.5 t17 97q0 52 -17 96t-48.5 76t-75.5 50t-98 18t-98 -18t-75.5 -50t-48.5 -76t-17 -96z" />
<glyph unicode="&#xbb;" d="M240.5 262q-0.5 12 7.5 25l174 285l-174 285q-8 13 -7.5 25t6.5 22.5t17 18.5t24 14q25 11 51 8.5t39 -23.5l198 -326q14 -24 0 -48l-198 -326q-13 -21 -39 -23.5t-51 8.5q-13 6 -24 14t-17 18.5t-6.5 22.5zM640.5 262q-0.5 12 7.5 25l174 285l-174 285q-8 13 -7.5 25 t6.5 22.5t17 18.5t24 14q25 11 51 8.5t39 -23.5l198 -326q14 -24 0 -48l-198 -326q-13 -21 -39 -23.5t-51 8.5q-13 6 -24 14t-17 18.5t-6.5 22.5z" />
<glyph unicode="&#xbc;" d="M44 691q0 28 11 40t31 12h170v476l-145 -47q-42 -15 -58 33q-18 51 23 64l238 76q22 8 38.5 -1t16.5 -31v-570h162q20 0 30 -12t10 -40q0 -29 -10 -41t-30 -12h-445q-20 0 -31 12t-11 41zM111 252q0 18 14 27l918 561q13 8 29.5 2t30.5 -26t14 -38t-14 -27l-918 -561 q-13 -8 -29.5 -2t-30.5 26t-14 38zM559 138q0 15 3.5 25t10.5 20l317 377q14 18 29.5 27.5t37.5 9.5q14 0 27 -3.5t23.5 -9.5t17 -15t6.5 -19v-372h91q19 0 29.5 -12t10.5 -40t-10.5 -40.5t-29.5 -12.5h-91v-153q0 -19 -12 -29.5t-44 -10.5q-31 0 -44 10.5t-13 29.5v153 h-314q-19 0 -32 15t-13 50zM702 178h216l5 266z" />
<glyph unicode="&#xbd;" d="M44 691q0 28 11 40t31 12h170v476l-145 -47q-42 -15 -58 33q-18 51 23 64l238 76q22 8 38.5 -1t16.5 -31v-570h162q20 0 30 -12t10 -40q0 -29 -10 -41t-30 -12h-445q-20 0 -31 12t-11 41zM111 302q0 18 14 27l918 561q13 8 29.5 2t30.5 -26t14 -38t-14 -27l-918 -561 q-13 -8 -29.5 -2t-30.5 26t-14 38zM598 -54q0 19 7.5 32t18.5 23l278 234q45 38 68 72t23 76q0 48 -32.5 77t-95.5 29q-36 0 -71 -8.5t-64 -23.5v-86q0 -21 -12.5 -32t-43.5 -11t-43.5 11t-12.5 32v122q0 23 17 35q50 34 113.5 51.5t123.5 17.5q56 0 100 -15t75 -43 t47 -67.5t16 -88.5q0 -33 -8.5 -62.5t-25.5 -57t-42.5 -53.5t-59.5 -54l-199 -165h269v65q0 21 12.5 31.5t43.5 10.5t43.5 -10.5t12.5 -31.5v-125q0 -45 -41 -45h-477q-20 0 -30 15.5t-10 44.5z" />
<glyph unicode="&#xbe;" d="M59.5 705q-0.5 18 6.5 37q7 20 21 32.5t36 3.5q41 -21 88.5 -34t94.5 -13q75 0 116 27t41 78q0 29 -11 48.5t-31 31t-48.5 16t-62.5 4.5h-44q-20 0 -28 15t-8 37t8 37.5t28 15.5h33q67 0 104.5 23t37.5 78q0 50 -37.5 74.5t-101.5 24.5q-35 0 -65.5 -6t-57.5 -18v-53 q0 -20 -12.5 -31t-43.5 -11t-43.5 11t-12.5 31v92q0 24 17 35q50 30 110.5 44t116.5 14q58 0 103.5 -14.5t77.5 -41t49 -63t17 -80.5q0 -52 -24.5 -89.5t-69.5 -61.5q54 -18 85 -59t31 -105q0 -48 -16.5 -87.5t-50 -67t-83.5 -42.5t-118 -15q-59 0 -121 13t-113 42 q-18 9 -18.5 27zM111 262q0 18 14 27l918 561q13 8 29.5 2t30.5 -26t14 -38t-14 -27l-918 -561q-13 -8 -29.5 -2t-30.5 26t-14 38zM559 138q0 15 3.5 25t10.5 20l317 377q14 18 29.5 27.5t37.5 9.5q14 0 27 -3.5t23.5 -9.5t17 -15t6.5 -19v-372h91q19 0 29.5 -12t10.5 -40 t-10.5 -40.5t-29.5 -12.5h-91v-153q0 -19 -12 -29.5t-44 -10.5q-31 0 -44 10.5t-13 29.5v153h-314q-19 0 -32 15t-13 50zM702 178h216l5 266z" />
<glyph unicode="&#xbf;" d="M258 291q0 67 20.5 117.5t60.5 90.5t99.5 72.5t136.5 64.5l10 141q2 23 19.5 37t49.5 14t49.5 -14t19.5 -37l10 -195q1 -20 -6 -32t-24 -19l-69 -28q-57 -23 -98 -45t-68 -46.5t-39.5 -54t-12.5 -66.5q0 -73 49.5 -119t143.5 -46q61 0 114.5 8.5t100.5 28.5v89 q0 35 16.5 50t58.5 15t58.5 -15t16.5 -50v-127q0 -41 -25 -56q-76 -46 -161.5 -68.5t-177.5 -22.5q-83 0 -148.5 23t-110.5 64t-69 99t-24 127zM516 1071q0 28 11 53.5t29.5 44t43.5 29.5t54 11q28 0 53.5 -11t44 -29.5t29.5 -44t11 -53.5q0 -29 -11 -54t-29.5 -43.5 t-44 -29.5t-53.5 -11q-29 0 -54 11t-43.5 29.5t-29.5 43.5t-11 54z" />
<glyph unicode="&#xc0;" d="M10 68q0 38 14.5 53t48.5 15h56l331 915h-187q-34 0 -48.5 15t-14.5 53t14.5 53t48.5 15h367q40 0 64.5 -15t36.5 -50l353 -986h61q34 0 48.5 -15t14.5 -53t-14.5 -53t-48.5 -15h-354q-34 0 -48.5 15t-14.5 53t14.5 53t48.5 15h135l-82 238h-485l-83 -238h121 q34 0 48.5 -15t14.5 -53t-14.5 -53t-48.5 -15h-334q-34 0 -48.5 15t-14.5 53zM227 1502.5q-1 12.5 4.5 31t20.5 45.5q16 28 29 42.5t24.5 19.5t23 2t24.5 -10l416 -230q17 -10 21.5 -27.5t-2.5 -34.5t-21.5 -27.5t-33.5 -4.5l-481 163q-10 3 -17 10.5t-8 20zM416 510h392 l-186 541h-19z" />
<glyph unicode="&#xc1;" d="M10 68q0 38 14.5 53t48.5 15h56l331 915h-187q-34 0 -48.5 15t-14.5 53t14.5 53t48.5 15h367q40 0 64.5 -15t36.5 -50l353 -986h61q34 0 48.5 -15t14.5 -53t-14.5 -53t-48.5 -15h-354q-34 0 -48.5 15t-14.5 53t14.5 53t48.5 15h135l-82 238h-485l-83 -238h121 q34 0 48.5 -15t14.5 -53t-14.5 -53t-48.5 -15h-334q-34 0 -48.5 15t-14.5 53zM337.5 1375.5q4.5 17.5 21.5 27.5l416 230q13 7 24.5 10t23 -2t24.5 -19.5t29 -42.5q15 -27 20.5 -45.5t4.5 -31t-8 -20t-17 -10.5l-481 -163q-19 -6 -33.5 4.5t-21.5 27.5t-2.5 34.5zM416 510 h392l-186 541h-19z" />
<glyph unicode="&#xc2;" d="M10 68q0 38 14.5 53t48.5 15h56l331 915h-187q-34 0 -48.5 15t-14.5 53t14.5 53t48.5 15h367q40 0 64.5 -15t36.5 -50l353 -986h61q34 0 48.5 -15t14.5 -53t-14.5 -53t-48.5 -15h-354q-34 0 -48.5 15t-14.5 53t14.5 53t48.5 15h135l-82 238h-485l-83 -238h121 q34 0 48.5 -15t14.5 -53t-14.5 -53t-48.5 -15h-334q-34 0 -48.5 15t-14.5 53zM246 1364q0 18 16 32l277 232q22 18 55 18q32 0 55 -18l277 -232q16 -14 16 -32t-10 -34t-26 -23.5t-33 2.5l-279 159l-279 -159q-17 -10 -33 -2.5t-26 23.5t-10 34zM416 510h392l-186 541h-19z " />
<glyph unicode="&#xc3;" d="M10 68q0 38 14.5 53t48.5 15h56l331 915h-187q-34 0 -48.5 15t-14.5 53t14.5 53t48.5 15h367q40 0 64.5 -15t36.5 -50l353 -986h61q34 0 48.5 -15t14.5 -53t-14.5 -53t-48.5 -15h-354q-34 0 -48.5 15t-14.5 53t14.5 53t48.5 15h135l-82 238h-485l-83 -238h121 q34 0 48.5 -15t14.5 -53t-14.5 -53t-48.5 -15h-334q-34 0 -48.5 15t-14.5 53zM226.5 1433.5q1.5 19.5 17.5 32.5q60 50 108.5 70.5t91.5 20.5q37 0 71 -10t67 -21.5t65 -21.5t66 -10q30 0 65 10.5t70 31.5q17 10 33 3.5t29 -28.5t11.5 -41.5t-17.5 -32.5 q-60 -50 -108.5 -70.5t-91.5 -20.5q-37 0 -71 10t-67 21.5t-65 21.5t-66 10q-30 0 -65 -10.5t-70 -31.5q-17 -10 -33 -3.5t-29 28.5t-11.5 41.5zM416 510h392l-186 541h-19z" />
<glyph unicode="&#xc4;" d="M10 68q0 38 14.5 53t48.5 15h56l331 915h-187q-34 0 -48.5 15t-14.5 53t14.5 53t48.5 15h367q40 0 64.5 -15t36.5 -50l353 -986h61q34 0 48.5 -15t14.5 -53t-14.5 -53t-48.5 -15h-354q-34 0 -48.5 15t-14.5 53t14.5 53t48.5 15h135l-82 238h-485l-83 -238h121 q34 0 48.5 -15t14.5 -53t-14.5 -53t-48.5 -15h-334q-34 0 -48.5 15t-14.5 53zM249 1465q0 26 10 48.5t27 39.5t39.5 27t48.5 10t48.5 -10t39.5 -27t27 -39.5t10 -48.5t-10 -48.5t-27 -39.5t-39.5 -27t-48.5 -10t-48.5 10t-39.5 27t-27 39.5t-10 48.5zM416 510h392l-186 541 h-19zM689 1465q0 26 10 48.5t27 39.5t39.5 27t48.5 10t48.5 -10t39.5 -27t27 -39.5t10 -48.5t-10 -48.5t-27 -39.5t-39.5 -27t-48.5 -10t-48.5 10t-39.5 27t-27 39.5t-10 48.5z" />
<glyph unicode="&#xc5;" d="M10 68q0 38 14.5 53t48.5 15h56l331 915h-187q-34 0 -48.5 15t-14.5 53t14.5 53t48.5 15h367q40 0 64.5 -15t36.5 -50l353 -986h61q34 0 48.5 -15t14.5 -53t-14.5 -53t-48.5 -15h-354q-34 0 -48.5 15t-14.5 53t14.5 53t48.5 15h135l-82 238h-485l-83 -238h121 q34 0 48.5 -15t14.5 -53t-14.5 -53t-48.5 -15h-334q-34 0 -48.5 15t-14.5 53zM331 1551q0 51 19.5 96t52.5 78t78 52.5t96 19.5t96 -19.5t78 -52.5t52.5 -78t19.5 -96t-19.5 -96t-52.5 -78t-78 -52.5t-96 -19.5t-96 19.5t-78 52.5t-52.5 78t-19.5 96zM416 510h392l-186 541 h-19zM451 1551q0 -26 10 -49t27 -40t40 -27t49 -10t49 10t40 27t27 40t10 49t-10 49t-27 40t-40 27t-49 10t-49 -10t-40 -27t-27 -40t-10 -49z" />
<glyph unicode="&#xc6;" d="M0 68q0 38 14.5 53t48.5 15h50l280 915h-99q-34 0 -48.5 15t-14.5 53t14.5 53t48.5 15h769q34 0 48.5 -15t14.5 -53v-254q0 -35 -16.5 -50t-58.5 -15t-58.5 15t-16.5 50v186h-260v-366h192q34 0 48.5 -15t14.5 -53t-14.5 -53t-48.5 -15h-192v-413h272v229q0 35 16.5 50 t58.5 15t58.5 -15t16.5 -50v-297q0 -38 -14.5 -53t-48.5 -15h-446q-34 0 -48.5 15t-14.5 53v306h-225l-72 -238h88q34 0 48.5 -15t14.5 -53t-14.5 -53t-48.5 -15h-294q-34 0 -48.5 15t-14.5 53zM382 510h184v541h-20z" />
<glyph unicode="&#xc7;" d="M118 593q0 139 37.5 252.5t106 194.5t163.5 125t209 44q97 0 169 -32.5t121 -90.5v58q0 35 16.5 50t58.5 15t58.5 -15t16.5 -50v-330q0 -35 -16.5 -50t-58.5 -15t-58.5 15t-16.5 50q0 49 -16.5 94t-51 79t-87.5 54t-125 20q-81 0 -149 -32.5t-116.5 -93.5t-75.5 -147.5 t-27 -194.5t25.5 -194.5t72 -147t113 -93t147.5 -32.5q100 0 189.5 28.5t161.5 84.5q20 16 44 14t46 -39q21 -35 17 -60.5t-30 -44.5q-83 -58 -176 -89t-192 -39v-94q52 1 90.5 -12t64 -36t38.5 -54t13 -66q0 -42 -15.5 -77t-46.5 -60.5t-77.5 -39.5t-109.5 -14 q-67 0 -131 12t-116 36q-18 8 -20.5 28t5.5 40t24 33t35 5q39 -15 90.5 -24.5t102.5 -9.5q50 0 76.5 17.5t26.5 49.5q0 42 -38 57.5t-107 10.5q-7 0 -14 1t-13 5.5t-9.5 13t-3.5 22.5v158q-102 13 -183.5 62.5t-139 128.5t-88 185t-30.5 234z" />
<glyph unicode="&#xc8;" d="M80 68q0 38 14.5 53t48.5 15h102v915h-102q-34 0 -48.5 15t-14.5 53t14.5 53t48.5 15h874q34 0 48.5 -15t14.5 -53v-254q0 -35 -16.5 -50t-58.5 -15t-58.5 15t-16.5 50v186h-535v-371h250v91q0 35 16.5 50t58.5 15t58.5 -15t16.5 -50v-318q0 -35 -16.5 -50t-58.5 -15 t-58.5 15t-16.5 50v91h-250v-408h555v229q0 35 16.5 50t58.5 15t58.5 -15t16.5 -50v-297q0 -38 -14.5 -53t-48.5 -15h-894q-34 0 -48.5 15t-14.5 53zM297 1502.5q-1 12.5 4.5 31t20.5 45.5q16 28 29 42.5t24.5 19.5t23 2t24.5 -10l416 -230q17 -10 21.5 -27.5t-2.5 -34.5 t-21.5 -27.5t-33.5 -4.5l-481 163q-10 3 -17 10.5t-8 20z" />
<glyph unicode="&#xc9;" d="M80 68q0 38 14.5 53t48.5 15h102v915h-102q-34 0 -48.5 15t-14.5 53t14.5 53t48.5 15h874q34 0 48.5 -15t14.5 -53v-254q0 -35 -16.5 -50t-58.5 -15t-58.5 15t-16.5 50v186h-535v-371h250v91q0 35 16.5 50t58.5 15t58.5 -15t16.5 -50v-318q0 -35 -16.5 -50t-58.5 -15 t-58.5 15t-16.5 50v91h-250v-408h555v229q0 35 16.5 50t58.5 15t58.5 -15t16.5 -50v-297q0 -38 -14.5 -53t-48.5 -15h-894q-34 0 -48.5 15t-14.5 53zM367.5 1375.5q4.5 17.5 21.5 27.5l416 230q13 7 24.5 10t23 -2t24.5 -19.5t29 -42.5q15 -27 20.5 -45.5t4.5 -31t-8 -20 t-17 -10.5l-481 -163q-19 -6 -33.5 4.5t-21.5 27.5t-2.5 34.5z" />
<glyph unicode="&#xca;" d="M80 68q0 38 14.5 53t48.5 15h102v915h-102q-34 0 -48.5 15t-14.5 53t14.5 53t48.5 15h874q34 0 48.5 -15t14.5 -53v-254q0 -35 -16.5 -50t-58.5 -15t-58.5 15t-16.5 50v186h-535v-371h250v91q0 35 16.5 50t58.5 15t58.5 -15t16.5 -50v-318q0 -35 -16.5 -50t-58.5 -15 t-58.5 15t-16.5 50v91h-250v-408h555v229q0 35 16.5 50t58.5 15t58.5 -15t16.5 -50v-297q0 -38 -14.5 -53t-48.5 -15h-894q-34 0 -48.5 15t-14.5 53zM296 1364q0 18 16 32l277 232q22 18 55 18q32 0 55 -18l277 -232q16 -14 16 -32t-10 -34t-26 -23.5t-33 2.5l-279 159 l-279 -159q-17 -10 -33 -2.5t-26 23.5t-10 34z" />
<glyph unicode="&#xcb;" d="M80 68q0 38 14.5 53t48.5 15h102v915h-102q-34 0 -48.5 15t-14.5 53t14.5 53t48.5 15h874q34 0 48.5 -15t14.5 -53v-254q0 -35 -16.5 -50t-58.5 -15t-58.5 15t-16.5 50v186h-535v-371h250v91q0 35 16.5 50t58.5 15t58.5 -15t16.5 -50v-318q0 -35 -16.5 -50t-58.5 -15 t-58.5 15t-16.5 50v91h-250v-408h555v229q0 35 16.5 50t58.5 15t58.5 -15t16.5 -50v-297q0 -38 -14.5 -53t-48.5 -15h-894q-34 0 -48.5 15t-14.5 53zM299 1465q0 26 10 48.5t27 39.5t39.5 27t48.5 10t48.5 -10t39.5 -27t27 -39.5t10 -48.5t-10 -48.5t-27 -39.5t-39.5 -27 t-48.5 -10t-48.5 10t-39.5 27t-27 39.5t-10 48.5zM739 1465q0 26 10 48.5t27 39.5t39.5 27t48.5 10t48.5 -10t39.5 -27t27 -39.5t10 -48.5t-10 -48.5t-27 -39.5t-39.5 -27t-48.5 -10t-48.5 10t-39.5 27t-27 39.5t-10 48.5z" />
<glyph unicode="&#xcc;" d="M200 68q0 38 14.5 53t48.5 15h276v915h-256q-34 0 -48.5 15t-14.5 53t14.5 53t48.5 15h662q34 0 48.5 -15t14.5 -53t-14.5 -53t-48.5 -15h-256v-915h276q34 0 48.5 -15t14.5 -53t-14.5 -53t-48.5 -15h-702q-34 0 -48.5 15t-14.5 53zM287 1502.5q-1 12.5 4.5 31t20.5 45.5 q16 28 29 42.5t24.5 19.5t23 2t24.5 -10l416 -230q17 -10 21.5 -27.5t-2.5 -34.5t-21.5 -27.5t-33.5 -4.5l-481 163q-10 3 -17 10.5t-8 20z" />
<glyph unicode="&#xcd;" d="M200 68q0 38 14.5 53t48.5 15h276v915h-256q-34 0 -48.5 15t-14.5 53t14.5 53t48.5 15h662q34 0 48.5 -15t14.5 -53t-14.5 -53t-48.5 -15h-256v-915h276q34 0 48.5 -15t14.5 -53t-14.5 -53t-48.5 -15h-702q-34 0 -48.5 15t-14.5 53zM397.5 1375.5q4.5 17.5 21.5 27.5 l416 230q13 7 24.5 10t23 -2t24.5 -19.5t29 -42.5q15 -27 20.5 -45.5t4.5 -31t-8 -20t-17 -10.5l-481 -163q-19 -6 -33.5 4.5t-21.5 27.5t-2.5 34.5z" />
<glyph unicode="&#xce;" d="M200 68q0 38 14.5 53t48.5 15h276v915h-256q-34 0 -48.5 15t-14.5 53t14.5 53t48.5 15h662q34 0 48.5 -15t14.5 -53t-14.5 -53t-48.5 -15h-256v-915h276q34 0 48.5 -15t14.5 -53t-14.5 -53t-48.5 -15h-702q-34 0 -48.5 15t-14.5 53zM266 1364q0 18 16 32l277 232 q22 18 55 18q32 0 55 -18l277 -232q16 -14 16 -32t-10 -34t-26 -23.5t-33 2.5l-279 159l-279 -159q-17 -10 -33 -2.5t-26 23.5t-10 34z" />
<glyph unicode="&#xcf;" d="M200 68q0 38 14.5 53t48.5 15h276v915h-256q-34 0 -48.5 15t-14.5 53t14.5 53t48.5 15h662q34 0 48.5 -15t14.5 -53t-14.5 -53t-48.5 -15h-256v-915h276q34 0 48.5 -15t14.5 -53t-14.5 -53t-48.5 -15h-702q-34 0 -48.5 15t-14.5 53zM269 1465q0 26 10 48.5t27 39.5 t39.5 27t48.5 10t48.5 -10t39.5 -27t27 -39.5t10 -48.5t-10 -48.5t-27 -39.5t-39.5 -27t-48.5 -10t-48.5 10t-39.5 27t-27 39.5t-10 48.5zM709 1465q0 26 10 48.5t27 39.5t39.5 27t48.5 10t48.5 -10t39.5 -27t27 -39.5t10 -48.5t-10 -48.5t-27 -39.5t-39.5 -27t-48.5 -10 t-48.5 10t-39.5 27t-27 39.5t-10 48.5z" />
<glyph unicode="&#xd0;" d="M50 612q0 38 14.5 53t48.5 15h142v371h-112q-34 0 -48.5 15t-14.5 53t14.5 53t48.5 15h471q118 0 215 -41t166 -117.5t107 -186.5t38 -249t-38 -249t-107 -186.5t-166 -117t-215 -40.5h-471q-34 0 -48.5 15t-14.5 53t14.5 53t48.5 15h112v408h-142q-34 0 -48.5 15 t-14.5 53zM405 136h186q89 0 161 29.5t123 87t79 143t28 197.5t-28 197.5t-79 143.5t-123 87.5t-161 29.5h-186v-371h190q34 0 48.5 -15t14.5 -53t-14.5 -53t-48.5 -15h-190v-408z" />
<glyph unicode="&#xd1;" d="M70 1119q0 38 14.5 53t48.5 15h224q41 0 57 -28l474 -848v740h-117q-34 0 -48.5 15t-14.5 53t14.5 53t48.5 15h324q34 0 48.5 -15t14.5 -53t-14.5 -53t-48.5 -15h-57v-1014q0 -26 -18 -42.5t-57 -16.5q-29 0 -49 14.5t-35 40.5l-519 927v-824h137q34 0 48.5 -15t14.5 -53 t-14.5 -53t-48.5 -15h-354q-34 0 -48.5 15t-14.5 53t14.5 53t48.5 15h67v915h-77q-34 0 -48.5 15t-14.5 53zM266.5 1433.5q1.5 19.5 17.5 32.5q60 50 108.5 70.5t91.5 20.5q37 0 71 -10t67 -21.5t65 -21.5t66 -10q30 0 65 10.5t70 31.5q17 10 33 3.5t29 -28.5t11.5 -41.5 t-17.5 -32.5q-60 -50 -108.5 -70.5t-91.5 -20.5q-37 0 -71 10t-67 21.5t-65 21.5t-66 10q-30 0 -65 -10.5t-70 -31.5q-17 -10 -33 -3.5t-29 28.5t-11.5 41.5z" />
<glyph unicode="&#xd2;" d="M88 593q0 139 38 252.5t107 194.5t166 125t215 44t215 -44t166 -125t107 -194.5t38 -252.5t-38 -252.5t-107 -194t-166 -124.5t-215 -44t-215 44t-166 124.5t-107 194t-38 252.5zM246 593q0 -108 26.5 -194.5t74.5 -147t116 -93t151 -32.5t151 32.5t116 93t74.5 147 t26.5 194.5t-26.5 194.5t-74.5 147.5t-116 93.5t-151 32.5t-151 -32.5t-116 -93.5t-74.5 -147.5t-26.5 -194.5zM287 1502.5q-1 12.5 4.5 31t20.5 45.5q16 28 29 42.5t24.5 19.5t23 2t24.5 -10l416 -230q17 -10 21.5 -27.5t-2.5 -34.5t-21.5 -27.5t-33.5 -4.5l-481 163 q-10 3 -17 10.5t-8 20z" />
<glyph unicode="&#xd3;" d="M88 593q0 139 38 252.5t107 194.5t166 125t215 44t215 -44t166 -125t107 -194.5t38 -252.5t-38 -252.5t-107 -194t-166 -124.5t-215 -44t-215 44t-166 124.5t-107 194t-38 252.5zM246 593q0 -108 26.5 -194.5t74.5 -147t116 -93t151 -32.5t151 32.5t116 93t74.5 147 t26.5 194.5t-26.5 194.5t-74.5 147.5t-116 93.5t-151 32.5t-151 -32.5t-116 -93.5t-74.5 -147.5t-26.5 -194.5zM377.5 1375.5q4.5 17.5 21.5 27.5l416 230q13 7 24.5 10t23 -2t24.5 -19.5t29 -42.5q15 -27 20.5 -45.5t4.5 -31t-8 -20t-17 -10.5l-481 -163q-19 -6 -33.5 4.5 t-21.5 27.5t-2.5 34.5z" />
<glyph unicode="&#xd4;" d="M88 593q0 139 38 252.5t107 194.5t166 125t215 44t215 -44t166 -125t107 -194.5t38 -252.5t-38 -252.5t-107 -194t-166 -124.5t-215 -44t-215 44t-166 124.5t-107 194t-38 252.5zM246 593q0 -108 26.5 -194.5t74.5 -147t116 -93t151 -32.5t151 32.5t116 93t74.5 147 t26.5 194.5t-26.5 194.5t-74.5 147.5t-116 93.5t-151 32.5t-151 -32.5t-116 -93.5t-74.5 -147.5t-26.5 -194.5zM266 1364q0 18 16 32l277 232q22 18 55 18q32 0 55 -18l277 -232q16 -14 16 -32t-10 -34t-26 -23.5t-33 2.5l-279 159l-279 -159q-17 -10 -33 -2.5t-26 23.5 t-10 34z" />
<glyph unicode="&#xd5;" d="M88 593q0 139 38 252.5t107 194.5t166 125t215 44t215 -44t166 -125t107 -194.5t38 -252.5t-38 -252.5t-107 -194t-166 -124.5t-215 -44t-215 44t-166 124.5t-107 194t-38 252.5zM246 593q0 -108 26.5 -194.5t74.5 -147t116 -93t151 -32.5t151 32.5t116 93t74.5 147 t26.5 194.5t-26.5 194.5t-74.5 147.5t-116 93.5t-151 32.5t-151 -32.5t-116 -93.5t-74.5 -147.5t-26.5 -194.5zM266.5 1433.5q1.5 19.5 17.5 32.5q60 50 108.5 70.5t91.5 20.5q37 0 71 -10t67 -21.5t65 -21.5t66 -10q30 0 65 10.5t70 31.5q17 10 33 3.5t29 -28.5t11.5 -41.5 t-17.5 -32.5q-60 -50 -108.5 -70.5t-91.5 -20.5q-37 0 -71 10t-67 21.5t-65 21.5t-66 10q-30 0 -65 -10.5t-70 -31.5q-17 -10 -33 -3.5t-29 28.5t-11.5 41.5z" />
<glyph unicode="&#xd6;" d="M88 593q0 139 38 252.5t107 194.5t166 125t215 44t215 -44t166 -125t107 -194.5t38 -252.5t-38 -252.5t-107 -194t-166 -124.5t-215 -44t-215 44t-166 124.5t-107 194t-38 252.5zM246 593q0 -108 26.5 -194.5t74.5 -147t116 -93t151 -32.5t151 32.5t116 93t74.5 147 t26.5 194.5t-26.5 194.5t-74.5 147.5t-116 93.5t-151 32.5t-151 -32.5t-116 -93.5t-74.5 -147.5t-26.5 -194.5zM269 1465q0 26 10 48.5t27 39.5t39.5 27t48.5 10t48.5 -10t39.5 -27t27 -39.5t10 -48.5t-10 -48.5t-27 -39.5t-39.5 -27t-48.5 -10t-48.5 10t-39.5 27t-27 39.5 t-10 48.5zM709 1465q0 26 10 48.5t27 39.5t39.5 27t48.5 10t48.5 -10t39.5 -27t27 -39.5t10 -48.5t-10 -48.5t-27 -39.5t-39.5 -27t-48.5 -10t-48.5 10t-39.5 27t-27 39.5t-10 48.5z" />
<glyph unicode="&#xd7;" d="M233.5 275.5q-0.5 21.5 23.5 45.5l261 261l-261 261q-24 24 -23.5 45.5t26.5 47.5t47.5 26.5t45.5 -23.5l261 -261l261 261q24 24 45.5 23.5t47.5 -26.5t26.5 -47.5t-23.5 -45.5l-261 -261l261 -261q24 -24 23.5 -45.5t-26.5 -47.5t-47.5 -26.5t-45.5 23.5l-261 261 l-261 -261q-24 -24 -45.5 -23.5t-47.5 26.5t-26.5 47.5z" />
<glyph unicode="&#xd8;" d="M88 593q0 139 38 252.5t107 194.5t166 125t215 44q82 0 153.5 -21.5t131.5 -61.5l37 53q20 29 42.5 31.5t52.5 -18.5t35 -43t-15 -50l-48 -69q66 -81 101.5 -191.5t35.5 -245.5q0 -139 -38 -252.5t-107 -194t-166 -124.5t-215 -44q-83 0 -154.5 21t-131.5 62l-36 -51 q-20 -29 -42 -31.5t-52 18.5q-31 21 -36 42.5t15 50.5l47 67q-66 81 -101 191t-35 245zM246 593q0 -182 72 -301l494 709q-86 60 -198 60q-83 0 -151 -32.5t-116 -93.5t-74.5 -147.5t-26.5 -194.5zM415 186q42 -29 92 -44.5t107 -15.5q83 0 151 32.5t116 93t74.5 147 t26.5 194.5q0 92 -19 167.5t-54 134.5z" />
<glyph unicode="&#xd9;" d="M70 1119q0 38 14.5 53t48.5 15h324q34 0 48.5 -15t14.5 -53t-14.5 -53t-48.5 -15h-112v-638q0 -78 16.5 -132.5t50 -89t84 -50t118.5 -15.5t118.5 15.5t84 50t50 89t16.5 132.5v638h-112q-34 0 -48.5 15t-14.5 53t14.5 53t48.5 15h324q34 0 48.5 -15t14.5 -53t-14.5 -53 t-48.5 -15h-62v-658q0 -107 -29 -185t-83 -129t-132 -76t-175 -25q-98 0 -175.5 25t-131.5 76t-83 129t-29 185v658h-62q-34 0 -48.5 15t-14.5 53zM287 1502.5q-1 12.5 4.5 31t20.5 45.5q16 28 29 42.5t24.5 19.5t23 2t24.5 -10l416 -230q17 -10 21.5 -27.5t-2.5 -34.5 t-21.5 -27.5t-33.5 -4.5l-481 163q-10 3 -17 10.5t-8 20z" />
<glyph unicode="&#xda;" d="M70 1119q0 38 14.5 53t48.5 15h324q34 0 48.5 -15t14.5 -53t-14.5 -53t-48.5 -15h-112v-638q0 -78 16.5 -132.5t50 -89t84 -50t118.5 -15.5t118.5 15.5t84 50t50 89t16.5 132.5v638h-112q-34 0 -48.5 15t-14.5 53t14.5 53t48.5 15h324q34 0 48.5 -15t14.5 -53t-14.5 -53 t-48.5 -15h-62v-658q0 -107 -29 -185t-83 -129t-132 -76t-175 -25q-98 0 -175.5 25t-131.5 76t-83 129t-29 185v658h-62q-34 0 -48.5 15t-14.5 53zM397.5 1375.5q4.5 17.5 21.5 27.5l416 230q13 7 24.5 10t23 -2t24.5 -19.5t29 -42.5q15 -27 20.5 -45.5t4.5 -31t-8 -20 t-17 -10.5l-481 -163q-19 -6 -33.5 4.5t-21.5 27.5t-2.5 34.5z" />
<glyph unicode="&#xdb;" d="M70 1119q0 38 14.5 53t48.5 15h324q34 0 48.5 -15t14.5 -53t-14.5 -53t-48.5 -15h-112v-638q0 -78 16.5 -132.5t50 -89t84 -50t118.5 -15.5t118.5 15.5t84 50t50 89t16.5 132.5v638h-112q-34 0 -48.5 15t-14.5 53t14.5 53t48.5 15h324q34 0 48.5 -15t14.5 -53t-14.5 -53 t-48.5 -15h-62v-658q0 -107 -29 -185t-83 -129t-132 -76t-175 -25q-98 0 -175.5 25t-131.5 76t-83 129t-29 185v658h-62q-34 0 -48.5 15t-14.5 53zM266 1364q0 18 16 32l277 232q22 18 55 18q32 0 55 -18l277 -232q16 -14 16 -32t-10 -34t-26 -23.5t-33 2.5l-279 159 l-279 -159q-17 -10 -33 -2.5t-26 23.5t-10 34z" />
<glyph unicode="&#xdc;" d="M70 1119q0 38 14.5 53t48.5 15h324q34 0 48.5 -15t14.5 -53t-14.5 -53t-48.5 -15h-112v-638q0 -78 16.5 -132.5t50 -89t84 -50t118.5 -15.5t118.5 15.5t84 50t50 89t16.5 132.5v638h-112q-34 0 -48.5 15t-14.5 53t14.5 53t48.5 15h324q34 0 48.5 -15t14.5 -53t-14.5 -53 t-48.5 -15h-62v-658q0 -107 -29 -185t-83 -129t-132 -76t-175 -25q-98 0 -175.5 25t-131.5 76t-83 129t-29 185v658h-62q-34 0 -48.5 15t-14.5 53zM269 1465q0 26 10 48.5t27 39.5t39.5 27t48.5 10t48.5 -10t39.5 -27t27 -39.5t10 -48.5t-10 -48.5t-27 -39.5t-39.5 -27 t-48.5 -10t-48.5 10t-39.5 27t-27 39.5t-10 48.5zM709 1465q0 26 10 48.5t27 39.5t39.5 27t48.5 10t48.5 -10t39.5 -27t27 -39.5t10 -48.5t-10 -48.5t-27 -39.5t-39.5 -27t-48.5 -10t-48.5 10t-39.5 27t-27 39.5t-10 48.5z" />
<glyph unicode="&#xdd;" d="M60 1119q0 38 14.5 53t48.5 15h334q34 0 48.5 -15t14.5 -53t-14.5 -53t-48.5 -15h-93l250 -409l252 409h-65q-34 0 -48.5 15t-14.5 53t14.5 53t48.5 15h304q34 0 48.5 -15t14.5 -53t-14.5 -53t-48.5 -15h-68l-348 -559v-356h226q34 0 48.5 -15t14.5 -53t-14.5 -53 t-48.5 -15h-602q-34 0 -48.5 15t-14.5 53t14.5 53t48.5 15h226v356l-346 559h-70q-34 0 -48.5 15t-14.5 53zM397.5 1375.5q4.5 17.5 21.5 27.5l416 230q13 7 24.5 10t23 -2t24.5 -19.5t29 -42.5q15 -27 20.5 -45.5t4.5 -31t-8 -20t-17 -10.5l-481 -163q-19 -6 -33.5 4.5 t-21.5 27.5t-2.5 34.5z" />
<glyph unicode="&#xde;" d="M110 68q0 38 14.5 53t48.5 15h156v915h-156q-34 0 -48.5 15t-14.5 53t14.5 53t48.5 15h522q34 0 48.5 -15t14.5 -53t-14.5 -53t-48.5 -15h-216v-124h231q90 0 158 -25.5t113 -69.5t68 -104t23 -130q0 -69 -23 -128.5t-68 -103t-113 -68.5t-158 -25h-231v-137h216 q34 0 48.5 -15t14.5 -53t-14.5 -53t-48.5 -15h-522q-34 0 -48.5 15t-14.5 53zM479 409h210q111 0 168 49.5t57 139.5q0 42 -13 77t-40.5 61t-70 40.5t-101.5 14.5h-210v-382z" />
<glyph unicode="&#xdf;" d="M40 68q0 38 14.5 53t48.5 15h142v807q0 82 25 151t73 118.5t117 77t156 27.5q94 0 164.5 -27t118 -73.5t71.5 -110t24 -135.5q0 -95 -47.5 -161t-126.5 -108q107 -41 169 -129t62 -213q0 -90 -29.5 -161t-83 -120t-128.5 -75t-166 -26q-51 0 -67 17t-16 60q0 37 14.5 54 t49.5 17q125 0 196.5 60.5t71.5 175.5q0 62 -18 110t-51.5 80.5t-81 49.5t-105.5 17q-34 0 -48.5 16.5t-14.5 52.5t14.5 52t48.5 19q100 10 150.5 67t50.5 145q0 93 -57.5 147t-168.5 54q-52 0 -92.5 -17t-68 -48.5t-42 -75.5t-14.5 -99v-864q0 -38 -14.5 -53t-48.5 -15 h-229q-34 0 -48.5 15t-14.5 53z" />
<glyph unicode="&#xe0;" d="M135 270q0 84 32.5 143t88 95.5t129 53.5t155.5 17q81 0 157 -13t147 -38v85q0 97 -46.5 142.5t-159.5 45.5q-81 0 -162.5 -21.5t-144.5 -66.5q-23 -17 -47 -12t-46 36t-17.5 55.5t27.5 41.5q39 29 86 50.5t97.5 35t103 20t103.5 6.5q179 0 267.5 -84t88.5 -249v-398 q0 -79 66 -79h35q34 0 48.5 -15t14.5 -53t-14.5 -53t-48.5 -15h-64q-31 0 -59 7.5t-50.5 23.5t-39 40t-23.5 57q-79 -69 -174 -109.5t-206 -40.5q-75 0 -138 19.5t-109 57t-71.5 91.5t-25.5 124zM293 273q0 -73 50.5 -113.5t141.5 -40.5q107 0 196 44.5t163 120.5v109 q-69 23 -147 34t-156 11q-54 0 -99.5 -9t-78.5 -28.5t-51.5 -51t-18.5 -76.5zM327 1232.5q-1 12.5 4.5 31t20.5 45.5q16 28 29 42.5t24.5 19.5t23 2t24.5 -10l416 -230q17 -10 21.5 -27.5t-2.5 -34.5t-21.5 -27.5t-33.5 -4.5l-481 163q-10 3 -17 10.5t-8 20z" />
<glyph unicode="&#xe1;" d="M135 270q0 84 32.5 143t88 95.5t129 53.5t155.5 17q81 0 157 -13t147 -38v85q0 97 -46.5 142.5t-159.5 45.5q-81 0 -162.5 -21.5t-144.5 -66.5q-23 -17 -47 -12t-46 36t-17.5 55.5t27.5 41.5q39 29 86 50.5t97.5 35t103 20t103.5 6.5q179 0 267.5 -84t88.5 -249v-398 q0 -79 66 -79h35q34 0 48.5 -15t14.5 -53t-14.5 -53t-48.5 -15h-64q-31 0 -59 7.5t-50.5 23.5t-39 40t-23.5 57q-79 -69 -174 -109.5t-206 -40.5q-75 0 -138 19.5t-109 57t-71.5 91.5t-25.5 124zM293 273q0 -73 50.5 -113.5t141.5 -40.5q107 0 196 44.5t163 120.5v109 q-69 23 -147 34t-156 11q-54 0 -99.5 -9t-78.5 -28.5t-51.5 -51t-18.5 -76.5zM337.5 1105.5q4.5 17.5 21.5 27.5l416 230q13 7 24.5 10t23 -2t24.5 -19.5t29 -42.5q15 -27 20.5 -45.5t4.5 -31t-8 -20t-17 -10.5l-481 -163q-19 -6 -33.5 4.5t-21.5 27.5t-2.5 34.5z" />
<glyph unicode="&#xe2;" d="M135 270q0 84 32.5 143t88 95.5t129 53.5t155.5 17q81 0 157 -13t147 -38v85q0 97 -46.5 142.5t-159.5 45.5q-81 0 -162.5 -21.5t-144.5 -66.5q-23 -17 -47 -12t-46 36t-17.5 55.5t27.5 41.5q39 29 86 50.5t97.5 35t103 20t103.5 6.5q179 0 267.5 -84t88.5 -249v-398 q0 -79 66 -79h35q34 0 48.5 -15t14.5 -53t-14.5 -53t-48.5 -15h-64q-31 0 -59 7.5t-50.5 23.5t-39 40t-23.5 57q-79 -69 -174 -109.5t-206 -40.5q-75 0 -138 19.5t-109 57t-71.5 91.5t-25.5 124zM266 1094q0 18 16 32l277 232q22 18 55 18q32 0 55 -18l277 -232 q16 -14 16 -32t-10 -34t-26 -23.5t-33 2.5l-279 159l-279 -159q-17 -10 -33 -2.5t-26 23.5t-10 34zM293 273q0 -73 50.5 -113.5t141.5 -40.5q107 0 196 44.5t163 120.5v109q-69 23 -147 34t-156 11q-54 0 -99.5 -9t-78.5 -28.5t-51.5 -51t-18.5 -76.5z" />
<glyph unicode="&#xe3;" d="M135 270q0 84 32.5 143t88 95.5t129 53.5t155.5 17q81 0 157 -13t147 -38v85q0 97 -46.5 142.5t-159.5 45.5q-81 0 -162.5 -21.5t-144.5 -66.5q-23 -17 -47 -12t-46 36t-17.5 55.5t27.5 41.5q39 29 86 50.5t97.5 35t103 20t103.5 6.5q179 0 267.5 -84t88.5 -249v-398 q0 -79 66 -79h35q34 0 48.5 -15t14.5 -53t-14.5 -53t-48.5 -15h-64q-31 0 -59 7.5t-50.5 23.5t-39 40t-23.5 57q-79 -69 -174 -109.5t-206 -40.5q-75 0 -138 19.5t-109 57t-71.5 91.5t-25.5 124zM266.5 1173.5q1.5 19.5 17.5 32.5q60 50 108.5 70.5t91.5 20.5q37 0 71 -10 t67 -21.5t65 -21.5t66 -10q30 0 65 10.5t70 31.5q17 10 33 3.5t29 -28.5t11.5 -41.5t-17.5 -32.5q-60 -50 -108.5 -70.5t-91.5 -20.5q-37 0 -71 10t-67 21.5t-65 21.5t-66 10q-30 0 -65 -10.5t-70 -31.5q-17 -10 -33 -3.5t-29 28.5t-11.5 41.5zM293 273q0 -73 50.5 -113.5 t141.5 -40.5q107 0 196 44.5t163 120.5v109q-69 23 -147 34t-156 11q-54 0 -99.5 -9t-78.5 -28.5t-51.5 -51t-18.5 -76.5z" />
<glyph unicode="&#xe4;" d="M135 270q0 84 32.5 143t88 95.5t129 53.5t155.5 17q81 0 157 -13t147 -38v85q0 97 -46.5 142.5t-159.5 45.5q-81 0 -162.5 -21.5t-144.5 -66.5q-23 -17 -47 -12t-46 36t-17.5 55.5t27.5 41.5q39 29 86 50.5t97.5 35t103 20t103.5 6.5q179 0 267.5 -84t88.5 -249v-398 q0 -79 66 -79h35q34 0 48.5 -15t14.5 -53t-14.5 -53t-48.5 -15h-64q-31 0 -59 7.5t-50.5 23.5t-39 40t-23.5 57q-79 -69 -174 -109.5t-206 -40.5q-75 0 -138 19.5t-109 57t-71.5 91.5t-25.5 124zM269 1195q0 26 10 48.5t27 39.5t39.5 27t48.5 10t48.5 -10t39.5 -27t27 -39.5 t10 -48.5t-10 -48.5t-27 -39.5t-39.5 -27t-48.5 -10t-48.5 10t-39.5 27t-27 39.5t-10 48.5zM293 273q0 -73 50.5 -113.5t141.5 -40.5q107 0 196 44.5t163 120.5v109q-69 23 -147 34t-156 11q-54 0 -99.5 -9t-78.5 -28.5t-51.5 -51t-18.5 -76.5zM709 1195q0 26 10 48.5 t27 39.5t39.5 27t48.5 10t48.5 -10t39.5 -27t27 -39.5t10 -48.5t-10 -48.5t-27 -39.5t-39.5 -27t-48.5 -10t-48.5 10t-39.5 27t-27 39.5t-10 48.5z" />
<glyph unicode="&#xe5;" d="M135 270q0 84 32.5 143t88 95.5t129 53.5t155.5 17q81 0 157 -13t147 -38v85q0 97 -46.5 142.5t-159.5 45.5q-81 0 -162.5 -21.5t-144.5 -66.5q-23 -17 -47 -12t-46 36t-17.5 55.5t27.5 41.5q39 29 86 50.5t97.5 35t103 20t103.5 6.5q179 0 267.5 -84t88.5 -249v-398 q0 -79 66 -79h35q34 0 48.5 -15t14.5 -53t-14.5 -53t-48.5 -15h-64q-31 0 -59 7.5t-50.5 23.5t-39 40t-23.5 57q-79 -69 -174 -109.5t-206 -40.5q-75 0 -138 19.5t-109 57t-71.5 91.5t-25.5 124zM293 273q0 -73 50.5 -113.5t141.5 -40.5q107 0 196 44.5t163 120.5v109 q-69 23 -147 34t-156 11q-54 0 -99.5 -9t-78.5 -28.5t-51.5 -51t-18.5 -76.5zM378 1282q0 51 19.5 96t52.5 78t78 52.5t96 19.5t96 -19.5t78 -52.5t52.5 -78t19.5 -96t-19.5 -96t-52.5 -78t-78 -52.5t-96 -19.5t-96 19.5t-78 52.5t-52.5 78t-19.5 96zM498 1282q0 -26 10 -49 t27 -40t40 -27t49 -10t49 10t40 27t27 40t10 49t-10 49t-27 40t-40 27t-49 10t-49 -10t-40 -27t-27 -40t-10 -49z" />
<glyph unicode="&#xe6;" d="M75 240q0 85 33.5 149t94.5 106.5t146.5 63.5t189.5 21v22q0 46 -5.5 83t-20 63t-40 39.5t-65.5 13.5q-46 0 -88.5 -17t-88.5 -52q-22 -17 -47 -15.5t-47 25.5q-22 25 -21.5 51.5t23.5 46.5q64 55 131 80.5t138 25.5q81 0 135 -30.5t86 -85.5q40 58 96.5 87t127.5 29 q79 0 135 -32t91 -90t52 -140t20 -182q0 -34 -14.5 -48t-48.5 -14h-399q1 -90 14.5 -151t35.5 -98t51.5 -52.5t62.5 -15.5q48 0 88 18.5t82 59.5q19 19 45.5 17t49.5 -31t20.5 -54.5t-26.5 -48.5q-56 -53 -121.5 -79.5t-137.5 -26.5q-79 0 -140.5 35t-103.5 109 q-48 -67 -120.5 -105.5t-153.5 -38.5q-59 0 -107 18.5t-82 52.5t-52.5 82.5t-18.5 108.5zM228 240q0 -58 30 -89.5t81 -31.5q42 0 78.5 16.5t63.5 45.5t42.5 70t15.5 89v100q-163 0 -237 -51t-74 -149zM694 580h300q-7 103 -39 162t-100 59q-69 0 -109 -51t-52 -170z" />
<glyph unicode="&#xe7;" d="M127 462q0 104 35 192.5t98.5 153.5t152 101.5t196.5 36.5q91 0 165 -32.5t125 -92.5v60q0 35 16.5 50t58.5 15t58.5 -15t16.5 -50v-290q0 -35 -16.5 -50t-58.5 -15t-58.5 15t-16.5 50q0 45 -18 83t-53.5 65.5t-87.5 43t-121 15.5q-73 0 -134.5 -25t-105.5 -70 t-69 -106.5t-25 -134.5t23 -134.5t65.5 -106.5t102.5 -70t133 -25q92 0 178 28t158 83q26 20 49 15t44 -40q17 -27 14.5 -55.5t-31.5 -50.5q-71 -53 -164 -85.5t-193 -40.5v-93q52 1 90.5 -12t64 -36t38.5 -54t13 -66q0 -42 -15.5 -77t-46.5 -60.5t-77.5 -39.5t-109.5 -14 q-67 0 -131 12t-116 36q-18 8 -20.5 28t5.5 40t24 33t35 5q39 -15 90.5 -24.5t102.5 -9.5q50 0 76.5 17.5t26.5 49.5q0 42 -38 57.5t-107 10.5q-7 0 -14 1t-13 5.5t-9.5 13t-3.5 22.5v159q-92 13 -166.5 54t-127 104t-80.5 144.5t-28 175.5z" />
<glyph unicode="&#xe8;" d="M146 462q0 109 35.5 198.5t98.5 153t150.5 98t192.5 34.5q111 0 196 -34.5t143.5 -95.5t90.5 -145t38 -184q0 -34 -14.5 -48t-48.5 -14h-724q8 -151 83.5 -226.5t215.5 -75.5q101 0 196 23t164 63q32 18 53.5 3t34.5 -47q14 -32 6 -57.5t-41 -42.5q-39 -19 -86.5 -35 t-101 -27.5t-110.5 -18t-115 -6.5q-110 0 -195 33.5t-143 96t-88.5 152t-30.5 202.5zM314 565h611q-21 113 -95 174.5t-207 61.5q-125 0 -204.5 -62.5t-104.5 -173.5zM327 1232.5q-1 12.5 4.5 31t20.5 45.5q16 28 29 42.5t24.5 19.5t23 2t24.5 -10l416 -230 q17 -10 21.5 -27.5t-2.5 -34.5t-21.5 -27.5t-33.5 -4.5l-481 163q-10 3 -17 10.5t-8 20z" />
<glyph unicode="&#xe9;" d="M146 462q0 109 35.5 198.5t98.5 153t150.5 98t192.5 34.5q111 0 196 -34.5t143.5 -95.5t90.5 -145t38 -184q0 -34 -14.5 -48t-48.5 -14h-724q8 -151 83.5 -226.5t215.5 -75.5q101 0 196 23t164 63q32 18 53.5 3t34.5 -47q14 -32 6 -57.5t-41 -42.5q-39 -19 -86.5 -35 t-101 -27.5t-110.5 -18t-115 -6.5q-110 0 -195 33.5t-143 96t-88.5 152t-30.5 202.5zM314 565h611q-21 113 -95 174.5t-207 61.5q-125 0 -204.5 -62.5t-104.5 -173.5zM377.5 1105.5q4.5 17.5 21.5 27.5l416 230q13 7 24.5 10t23 -2t24.5 -19.5t29 -42.5q15 -27 20.5 -45.5 t4.5 -31t-8 -20t-17 -10.5l-481 -163q-19 -6 -33.5 4.5t-21.5 27.5t-2.5 34.5z" />
<glyph unicode="&#xea;" d="M146 462q0 109 35.5 198.5t98.5 153t150.5 98t192.5 34.5q111 0 196 -34.5t143.5 -95.5t90.5 -145t38 -184q0 -34 -14.5 -48t-48.5 -14h-724q8 -151 83.5 -226.5t215.5 -75.5q101 0 196 23t164 63q32 18 53.5 3t34.5 -47q14 -32 6 -57.5t-41 -42.5q-39 -19 -86.5 -35 t-101 -27.5t-110.5 -18t-115 -6.5q-110 0 -195 33.5t-143 96t-88.5 152t-30.5 202.5zM286 1094q0 18 16 32l277 232q22 18 55 18q32 0 55 -18l277 -232q16 -14 16 -32t-10 -34t-26 -23.5t-33 2.5l-279 159l-279 -159q-17 -10 -33 -2.5t-26 23.5t-10 34zM314 565h611 q-21 113 -95 174.5t-207 61.5q-125 0 -204.5 -62.5t-104.5 -173.5z" />
<glyph unicode="&#xeb;" d="M146 462q0 109 35.5 198.5t98.5 153t150.5 98t192.5 34.5q111 0 196 -34.5t143.5 -95.5t90.5 -145t38 -184q0 -34 -14.5 -48t-48.5 -14h-724q8 -151 83.5 -226.5t215.5 -75.5q101 0 196 23t164 63q32 18 53.5 3t34.5 -47q14 -32 6 -57.5t-41 -42.5q-39 -19 -86.5 -35 t-101 -27.5t-110.5 -18t-115 -6.5q-110 0 -195 33.5t-143 96t-88.5 152t-30.5 202.5zM279 1195q0 26 10 48.5t27 39.5t39.5 27t48.5 10t48.5 -10t39.5 -27t27 -39.5t10 -48.5t-10 -48.5t-27 -39.5t-39.5 -27t-48.5 -10t-48.5 10t-39.5 27t-27 39.5t-10 48.5zM314 565h611 q-21 113 -95 174.5t-207 61.5q-125 0 -204.5 -62.5t-104.5 -173.5zM719 1195q0 26 10 48.5t27 39.5t39.5 27t48.5 10t48.5 -10t39.5 -27t27 -39.5t10 -48.5t-10 -48.5t-27 -39.5t-39.5 -27t-48.5 -10t-48.5 10t-39.5 27t-27 39.5t-10 48.5z" />
<glyph unicode="&#xec;" d="M187 68q0 38 14.5 53t48.5 15h313v652h-253q-34 0 -48.5 15t-14.5 53t14.5 53t48.5 15h340q34 0 48.5 -15t14.5 -53v-720h321q34 0 48.5 -15t14.5 -53t-14.5 -53t-48.5 -15h-784q-34 0 -48.5 15t-14.5 53zM227 1232.5q-1 12.5 4.5 31t20.5 45.5q16 28 29 42.5t24.5 19.5 t23 2t24.5 -10l416 -230q17 -10 21.5 -27.5t-2.5 -34.5t-21.5 -27.5t-33.5 -4.5l-481 163q-10 3 -17 10.5t-8 20z" />
<glyph unicode="&#xed;" d="M187 68q0 38 14.5 53t48.5 15h313v652h-253q-34 0 -48.5 15t-14.5 53t14.5 53t48.5 15h340q34 0 48.5 -15t14.5 -53v-720h321q34 0 48.5 -15t14.5 -53t-14.5 -53t-48.5 -15h-784q-34 0 -48.5 15t-14.5 53zM337.5 1105.5q4.5 17.5 21.5 27.5l416 230q13 7 24.5 10t23 -2 t24.5 -19.5t29 -42.5q15 -27 20.5 -45.5t4.5 -31t-8 -20t-17 -10.5l-481 -163q-19 -6 -33.5 4.5t-21.5 27.5t-2.5 34.5z" />
<glyph unicode="&#xee;" d="M187 68q0 38 14.5 53t48.5 15h313v652h-253q-34 0 -48.5 15t-14.5 53t14.5 53t48.5 15h340q34 0 48.5 -15t14.5 -53v-720h321q34 0 48.5 -15t14.5 -53t-14.5 -53t-48.5 -15h-784q-34 0 -48.5 15t-14.5 53zM266 1094q0 18 16 32l277 232q22 18 55 18q32 0 55 -18l277 -232 q16 -14 16 -32t-10 -34t-26 -23.5t-33 2.5l-279 159l-279 -159q-17 -10 -33 -2.5t-26 23.5t-10 34z" />
<glyph unicode="&#xef;" d="M187 68q0 38 14.5 53t48.5 15h313v652h-253q-34 0 -48.5 15t-14.5 53t14.5 53t48.5 15h340q34 0 48.5 -15t14.5 -53v-720h321q34 0 48.5 -15t14.5 -53t-14.5 -53t-48.5 -15h-784q-34 0 -48.5 15t-14.5 53zM269 1195q0 26 10 48.5t27 39.5t39.5 27t48.5 10t48.5 -10 t39.5 -27t27 -39.5t10 -48.5t-10 -48.5t-27 -39.5t-39.5 -27t-48.5 -10t-48.5 10t-39.5 27t-27 39.5t-10 48.5zM709 1195q0 26 10 48.5t27 39.5t39.5 27t48.5 10t48.5 -10t39.5 -27t27 -39.5t10 -48.5t-10 -48.5t-27 -39.5t-39.5 -27t-48.5 -10t-48.5 10t-39.5 27t-27 39.5 t-10 48.5z" />
<glyph unicode="&#xf0;" d="M140 432q0 102 36 185.5t99 143.5t150 92.5t189 32.5q68 0 127 -22t111 -55q-40 65 -92.5 121t-115.5 106l-240 -90q-32 -12 -50.5 -2.5t-32.5 44.5t-5.5 54.5t40.5 31.5l149 56q-29 17 -59.5 33t-62.5 32q-31 15 -35.5 37t12.5 55q34 65 93 36t114 -61t107 -69l237 89 q32 12 50.5 2.5t32.5 -44.5t5.5 -54.5t-40.5 -31.5l-161 -60q66 -60 119.5 -130.5t91.5 -152.5t58.5 -176.5t20.5 -202.5q0 -102 -36 -185.5t-99 -143.5t-150 -92.5t-189 -32.5t-189 32.5t-150 92.5t-99 143.5t-36 185.5zM298 432q0 -69 22.5 -125.5t64 -96.5t100 -62 t129.5 -22t129.5 22t100 62t64 96.5t22.5 125.5t-22.5 125.5t-64 96.5t-100 62t-129.5 22t-129.5 -22t-100 -62t-64 -96.5t-22.5 -125.5z" />
<glyph unicode="&#xf1;" d="M77 856q0 38 14.5 53t48.5 15h179q34 0 48.5 -15t14.5 -53v-120q66 103 154 156.5t191 53.5q69 0 124 -23t93.5 -65t59 -102.5t20.5 -135.5v-484h82q34 0 48.5 -15t14.5 -53t-14.5 -53t-48.5 -15h-324q-34 0 -48.5 15t-14.5 53t14.5 53t48.5 15h92v469q0 43 -10 78.5 t-30 61t-50.5 39.5t-71.5 14q-64 0 -122 -28t-102 -78t-70 -119t-26 -151v-286h92q34 0 48.5 -15t14.5 -53t-14.5 -53t-48.5 -15h-324q-34 0 -48.5 15t-14.5 53t14.5 53t48.5 15h82v652h-102q-34 0 -48.5 15t-14.5 53zM266.5 1173.5q1.5 19.5 17.5 32.5q60 50 108.5 70.5 t91.5 20.5q37 0 71 -10t67 -21.5t65 -21.5t66 -10q30 0 65 10.5t70 31.5q17 10 33 3.5t29 -28.5t11.5 -41.5t-17.5 -32.5q-60 -50 -108.5 -70.5t-91.5 -20.5q-37 0 -71 10t-67 21.5t-65 21.5t-66 10q-30 0 -65 -10.5t-70 -31.5q-17 -10 -33 -3.5t-29 28.5t-11.5 41.5z" />
<glyph unicode="&#xf2;" d="M120 462q0 106 37.5 194.5t103.5 153t156.5 100.5t196.5 36t196.5 -36t156.5 -100.5t103.5 -153t37.5 -194.5t-37.5 -194.5t-103.5 -153t-156.5 -100.5t-196.5 -36t-196.5 36t-156.5 100.5t-103.5 153t-37.5 194.5zM278 462q0 -73 24.5 -134.5t68.5 -106.5t106 -70 t137 -25t137 25t106 70t68.5 106.5t24.5 134.5t-24.5 134.5t-68.5 106.5t-106 70t-137 25t-137 -25t-106 -70t-68.5 -106.5t-24.5 -134.5zM287 1232.5q-1 12.5 4.5 31t20.5 45.5q16 28 29 42.5t24.5 19.5t23 2t24.5 -10l416 -230q17 -10 21.5 -27.5t-2.5 -34.5t-21.5 -27.5 t-33.5 -4.5l-481 163q-10 3 -17 10.5t-8 20z" />
<glyph unicode="&#xf3;" d="M120 462q0 106 37.5 194.5t103.5 153t156.5 100.5t196.5 36t196.5 -36t156.5 -100.5t103.5 -153t37.5 -194.5t-37.5 -194.5t-103.5 -153t-156.5 -100.5t-196.5 -36t-196.5 36t-156.5 100.5t-103.5 153t-37.5 194.5zM278 462q0 -73 24.5 -134.5t68.5 -106.5t106 -70 t137 -25t137 25t106 70t68.5 106.5t24.5 134.5t-24.5 134.5t-68.5 106.5t-106 70t-137 25t-137 -25t-106 -70t-68.5 -106.5t-24.5 -134.5zM377.5 1105.5q4.5 17.5 21.5 27.5l416 230q13 7 24.5 10t23 -2t24.5 -19.5t29 -42.5q15 -27 20.5 -45.5t4.5 -31t-8 -20t-17 -10.5 l-481 -163q-19 -6 -33.5 4.5t-21.5 27.5t-2.5 34.5z" />
<glyph unicode="&#xf4;" d="M120 462q0 106 37.5 194.5t103.5 153t156.5 100.5t196.5 36t196.5 -36t156.5 -100.5t103.5 -153t37.5 -194.5t-37.5 -194.5t-103.5 -153t-156.5 -100.5t-196.5 -36t-196.5 36t-156.5 100.5t-103.5 153t-37.5 194.5zM266 1094q0 18 16 32l277 232q22 18 55 18q32 0 55 -18 l277 -232q16 -14 16 -32t-10 -34t-26 -23.5t-33 2.5l-279 159l-279 -159q-17 -10 -33 -2.5t-26 23.5t-10 34zM278 462q0 -73 24.5 -134.5t68.5 -106.5t106 -70t137 -25t137 25t106 70t68.5 106.5t24.5 134.5t-24.5 134.5t-68.5 106.5t-106 70t-137 25t-137 -25t-106 -70 t-68.5 -106.5t-24.5 -134.5z" />
<glyph unicode="&#xf5;" d="M120 462q0 106 37.5 194.5t103.5 153t156.5 100.5t196.5 36t196.5 -36t156.5 -100.5t103.5 -153t37.5 -194.5t-37.5 -194.5t-103.5 -153t-156.5 -100.5t-196.5 -36t-196.5 36t-156.5 100.5t-103.5 153t-37.5 194.5zM266.5 1173.5q1.5 19.5 17.5 32.5q60 50 108.5 70.5 t91.5 20.5q37 0 71 -10t67 -21.5t65 -21.5t66 -10q30 0 65 10.5t70 31.5q17 10 33 3.5t29 -28.5t11.5 -41.5t-17.5 -32.5q-60 -50 -108.5 -70.5t-91.5 -20.5q-37 0 -71 10t-67 21.5t-65 21.5t-66 10q-30 0 -65 -10.5t-70 -31.5q-17 -10 -33 -3.5t-29 28.5t-11.5 41.5z M278 462q0 -73 24.5 -134.5t68.5 -106.5t106 -70t137 -25t137 25t106 70t68.5 106.5t24.5 134.5t-24.5 134.5t-68.5 106.5t-106 70t-137 25t-137 -25t-106 -70t-68.5 -106.5t-24.5 -134.5z" />
<glyph unicode="&#xf6;" d="M120 462q0 106 37.5 194.5t103.5 153t156.5 100.5t196.5 36t196.5 -36t156.5 -100.5t103.5 -153t37.5 -194.5t-37.5 -194.5t-103.5 -153t-156.5 -100.5t-196.5 -36t-196.5 36t-156.5 100.5t-103.5 153t-37.5 194.5zM269 1195q0 26 10 48.5t27 39.5t39.5 27t48.5 10 t48.5 -10t39.5 -27t27 -39.5t10 -48.5t-10 -48.5t-27 -39.5t-39.5 -27t-48.5 -10t-48.5 10t-39.5 27t-27 39.5t-10 48.5zM278 462q0 -73 24.5 -134.5t68.5 -106.5t106 -70t137 -25t137 25t106 70t68.5 106.5t24.5 134.5t-24.5 134.5t-68.5 106.5t-106 70t-137 25t-137 -25 t-106 -70t-68.5 -106.5t-24.5 -134.5zM709 1195q0 26 10 48.5t27 39.5t39.5 27t48.5 10t48.5 -10t39.5 -27t27 -39.5t10 -48.5t-10 -48.5t-27 -39.5t-39.5 -27t-48.5 -10t-48.5 10t-39.5 27t-27 39.5t-10 48.5z" />
<glyph unicode="&#xf7;" d="M170 582q0 38 14.5 53t48.5 15h762q34 0 48.5 -15t14.5 -53t-14.5 -53t-48.5 -15h-762q-34 0 -48.5 15t-14.5 53zM494 239q0 25 9.5 46.5t25.5 38t37.5 26t46.5 9.5t46.5 -9.5t38 -26t26 -38t9.5 -46.5t-9.5 -46.5t-26 -37.5t-38 -25.5t-46.5 -9.5t-46.5 9.5t-37.5 25.5 t-25.5 37.5t-9.5 46.5zM494 925q0 25 9.5 46.5t25.5 38t37.5 26t46.5 9.5t46.5 -9.5t38 -26t26 -38t9.5 -46.5t-9.5 -46.5t-26 -37.5t-38 -25.5t-46.5 -9.5t-46.5 9.5t-37.5 25.5t-25.5 37.5t-9.5 46.5z" />
<glyph unicode="&#xf8;" d="M113.5 54.5q-0.5 22.5 24.5 46.5l73 70q-44 60 -67.5 133t-23.5 158q0 106 37.5 194.5t103.5 153t156.5 100.5t196.5 36q88 0 164.5 -25t138.5 -70l75 72q25 24 47.5 22.5t48.5 -27.5t26.5 -49t-25.5 -47l-73 -70q44 -60 68 -132.5t24 -157.5q0 -106 -37.5 -194.5 t-103.5 -153t-156.5 -100.5t-196.5 -36q-88 0 -165 24.5t-139 70.5l-75 -72q-25 -24 -47 -22.5t-48 27.5t-26.5 48.5zM278 462q0 -52 12 -97.5t35 -83.5l481 463q-40 26 -88 40t-104 14q-75 0 -137 -25t-106 -70t-68.5 -106.5t-24.5 -134.5zM421 180q40 -26 88 -40t105 -14 q75 0 137 25t106 70t68.5 106.5t24.5 134.5q0 51 -12 96.5t-35 84.5z" />
<glyph unicode="&#xf9;" d="M72 856q0 38 14.5 53t48.5 15h169q34 0 48.5 -15t14.5 -53v-537q0 -43 10 -78.5t30 -61t50.5 -39.5t71.5 -14q64 0 122 28t102 78t70 119t26 151v286h-142q-34 0 -48.5 15t-14.5 53t14.5 53t48.5 15h229q34 0 48.5 -15t14.5 -53v-720h82q34 0 48.5 -15t14.5 -53 t-14.5 -53t-48.5 -15h-159q-34 0 -48.5 14.5t-14.5 52.5v121q-66 -103 -154 -156.5t-191 -53.5q-69 0 -124 23t-93.5 65t-59 102.5t-20.5 135.5v484h-82q-34 0 -48.5 15t-14.5 53zM277 1232.5q-1 12.5 4.5 31t20.5 45.5q16 28 29 42.5t24.5 19.5t23 2t24.5 -10l416 -230 q17 -10 21.5 -27.5t-2.5 -34.5t-21.5 -27.5t-33.5 -4.5l-481 163q-10 3 -17 10.5t-8 20z" />
<glyph unicode="&#xfa;" d="M72 856q0 38 14.5 53t48.5 15h169q34 0 48.5 -15t14.5 -53v-537q0 -43 10 -78.5t30 -61t50.5 -39.5t71.5 -14q64 0 122 28t102 78t70 119t26 151v286h-142q-34 0 -48.5 15t-14.5 53t14.5 53t48.5 15h229q34 0 48.5 -15t14.5 -53v-720h82q34 0 48.5 -15t14.5 -53 t-14.5 -53t-48.5 -15h-159q-34 0 -48.5 14.5t-14.5 52.5v121q-66 -103 -154 -156.5t-191 -53.5q-69 0 -124 23t-93.5 65t-59 102.5t-20.5 135.5v484h-82q-34 0 -48.5 15t-14.5 53zM397.5 1105.5q4.5 17.5 21.5 27.5l416 230q13 7 24.5 10t23 -2t24.5 -19.5t29 -42.5 q15 -27 20.5 -45.5t4.5 -31t-8 -20t-17 -10.5l-481 -163q-19 -6 -33.5 4.5t-21.5 27.5t-2.5 34.5z" />
<glyph unicode="&#xfb;" d="M72 856q0 38 14.5 53t48.5 15h169q34 0 48.5 -15t14.5 -53v-537q0 -43 10 -78.5t30 -61t50.5 -39.5t71.5 -14q64 0 122 28t102 78t70 119t26 151v286h-142q-34 0 -48.5 15t-14.5 53t14.5 53t48.5 15h229q34 0 48.5 -15t14.5 -53v-720h82q34 0 48.5 -15t14.5 -53 t-14.5 -53t-48.5 -15h-159q-34 0 -48.5 14.5t-14.5 52.5v121q-66 -103 -154 -156.5t-191 -53.5q-69 0 -124 23t-93.5 65t-59 102.5t-20.5 135.5v484h-82q-34 0 -48.5 15t-14.5 53zM256 1094q0 18 16 32l277 232q22 18 55 18q32 0 55 -18l277 -232q16 -14 16 -32t-10 -34 t-26 -23.5t-33 2.5l-279 159l-279 -159q-17 -10 -33 -2.5t-26 23.5t-10 34z" />
<glyph unicode="&#xfc;" d="M72 856q0 38 14.5 53t48.5 15h169q34 0 48.5 -15t14.5 -53v-537q0 -43 10 -78.5t30 -61t50.5 -39.5t71.5 -14q64 0 122 28t102 78t70 119t26 151v286h-142q-34 0 -48.5 15t-14.5 53t14.5 53t48.5 15h229q34 0 48.5 -15t14.5 -53v-720h82q34 0 48.5 -15t14.5 -53 t-14.5 -53t-48.5 -15h-159q-34 0 -48.5 14.5t-14.5 52.5v121q-66 -103 -154 -156.5t-191 -53.5q-69 0 -124 23t-93.5 65t-59 102.5t-20.5 135.5v484h-82q-34 0 -48.5 15t-14.5 53zM249 1195q0 26 10 48.5t27 39.5t39.5 27t48.5 10t48.5 -10t39.5 -27t27 -39.5t10 -48.5 t-10 -48.5t-27 -39.5t-39.5 -27t-48.5 -10t-48.5 10t-39.5 27t-27 39.5t-10 48.5zM689 1195q0 26 10 48.5t27 39.5t39.5 27t48.5 10t48.5 -10t39.5 -27t27 -39.5t10 -48.5t-10 -48.5t-27 -39.5t-39.5 -27t-48.5 -10t-48.5 10t-39.5 27t-27 39.5t-10 48.5z" />
<glyph unicode="&#xfd;" d="M50 856q0 38 14.5 53t48.5 15h354q34 0 48.5 -15t14.5 -53t-14.5 -53t-48.5 -15h-128l282 -562l269 562h-89q-34 0 -48.5 15t-14.5 53t14.5 53t48.5 15h314q34 0 48.5 -15t14.5 -53t-14.5 -53t-48.5 -15h-62l-409 -838q-48 -98 -94 -166t-99 -111t-116.5 -63.5 t-145.5 -23.5q-29 -1 -48.5 13t-23.5 54q-4 44 10.5 63t41.5 21q69 4 117.5 18.5t88.5 50.5t78.5 99.5t88.5 164.5l-366 718h-63q-34 0 -48.5 15t-14.5 53zM407.5 1105.5q4.5 17.5 21.5 27.5l416 230q13 7 24.5 10t23 -2t24.5 -19.5t29 -42.5q15 -27 20.5 -45.5t4.5 -31 t-8 -20t-17 -10.5l-481 -163q-19 -6 -33.5 4.5t-21.5 27.5t-2.5 34.5z" />
<glyph unicode="&#xfe;" d="M27 -325q0 38 14.5 53t48.5 15h112v1433h-82q-34 0 -48.5 15t-14.5 53t14.5 53t48.5 15h169q34 0 48.5 -15t14.5 -53v-451q61 74 140.5 113.5t176.5 39.5q93 0 172 -31.5t136.5 -90.5t90.5 -144t33 -193t-33 -193t-90.5 -144t-136.5 -90.5t-172 -31.5q-100 0 -178.5 40.5 t-138.5 115.5v-441h222q34 0 48.5 -15t14.5 -53t-14.5 -53t-48.5 -15h-484q-34 0 -48.5 15t-14.5 53zM352 487q0 -74 23 -132t64 -97.5t97.5 -60.5t122.5 -21q68 0 121 23t89 64.5t55 98.5t19 125t-19 125t-55 98.5t-89 64.5t-121 23q-66 0 -122.5 -21t-97.5 -60.5 t-64 -97.5t-23 -132z" />
<glyph unicode="&#xff;" d="M50 856q0 38 14.5 53t48.5 15h354q34 0 48.5 -15t14.5 -53t-14.5 -53t-48.5 -15h-128l282 -562l269 562h-89q-34 0 -48.5 15t-14.5 53t14.5 53t48.5 15h314q34 0 48.5 -15t14.5 -53t-14.5 -53t-48.5 -15h-62l-409 -838q-48 -98 -94 -166t-99 -111t-116.5 -63.5 t-145.5 -23.5q-29 -1 -48.5 13t-23.5 54q-4 44 10.5 63t41.5 21q69 4 117.5 18.5t88.5 50.5t78.5 99.5t88.5 164.5l-366 718h-63q-34 0 -48.5 15t-14.5 53zM269 1195q0 26 10 48.5t27 39.5t39.5 27t48.5 10t48.5 -10t39.5 -27t27 -39.5t10 -48.5t-10 -48.5t-27 -39.5 t-39.5 -27t-48.5 -10t-48.5 10t-39.5 27t-27 39.5t-10 48.5zM709 1195q0 26 10 48.5t27 39.5t39.5 27t48.5 10t48.5 -10t39.5 -27t27 -39.5t10 -48.5t-10 -48.5t-27 -39.5t-39.5 -27t-48.5 -10t-48.5 10t-39.5 27t-27 39.5t-10 48.5z" />
<glyph unicode="&#x152;" d="M62 593q0 139 36.5 249t103.5 186.5t161.5 117.5t210.5 41h489q34 0 48.5 -15t14.5 -53v-254q0 -35 -16.5 -50t-58.5 -15t-58.5 15t-16.5 50v186h-260v-366h192q34 0 48.5 -15t14.5 -53t-14.5 -53t-48.5 -15h-192v-413h272v229q0 35 16.5 50t58.5 15t58.5 -15t16.5 -50 v-297q0 -38 -14.5 -53t-48.5 -15h-501q-116 0 -210.5 40.5t-161.5 117t-103.5 186.5t-36.5 249zM220 593q0 -109 24.5 -193t70 -141.5t109.5 -88.5t142 -34v914q-78 -3 -142 -33.5t-109.5 -88.5t-70 -142t-24.5 -193z" />
<glyph unicode="&#x153;" d="M70 462q0 115 19.5 205t58.5 152t97.5 94.5t136.5 32.5q80 0 137 -35.5t94 -104.5q41 70 101.5 105t138.5 35q79 0 135 -32t91 -90t52 -140t20 -182q0 -34 -14.5 -48t-48.5 -14h-399q1 -90 14.5 -151t35.5 -98t51.5 -52.5t62.5 -15.5q48 0 88 18.5t82 59.5q19 19 45.5 17 t49.5 -31t20.5 -54.5t-26.5 -48.5q-56 -53 -121.5 -79.5t-137.5 -26.5q-78 0 -138.5 34t-101.5 104q-37 -68 -94.5 -103t-136.5 -35q-78 0 -136.5 32.5t-97.5 94.5t-58.5 152t-19.5 205zM228 462q0 -176 37.5 -256t116.5 -80t116.5 80t37.5 256t-37.5 256t-116.5 80 t-116.5 -80t-37.5 -256zM694 580h300q-7 103 -39 162t-100 59q-69 0 -109 -51t-52 -170z" />
<glyph unicode="&#x178;" d="M60 1119q0 38 14.5 53t48.5 15h334q34 0 48.5 -15t14.5 -53t-14.5 -53t-48.5 -15h-93l250 -409l252 409h-65q-34 0 -48.5 15t-14.5 53t14.5 53t48.5 15h304q34 0 48.5 -15t14.5 -53t-14.5 -53t-48.5 -15h-68l-348 -559v-356h226q34 0 48.5 -15t14.5 -53t-14.5 -53 t-48.5 -15h-602q-34 0 -48.5 15t-14.5 53t14.5 53t48.5 15h226v356l-346 559h-70q-34 0 -48.5 15t-14.5 53zM269 1465q0 26 10 48.5t27 39.5t39.5 27t48.5 10t48.5 -10t39.5 -27t27 -39.5t10 -48.5t-10 -48.5t-27 -39.5t-39.5 -27t-48.5 -10t-48.5 10t-39.5 27t-27 39.5 t-10 48.5zM709 1465q0 26 10 48.5t27 39.5t39.5 27t48.5 10t48.5 -10t39.5 -27t27 -39.5t10 -48.5t-10 -48.5t-27 -39.5t-39.5 -27t-48.5 -10t-48.5 10t-39.5 27t-27 39.5t-10 48.5z" />
<glyph unicode="&#x2c6;" d="M266 1094q0 18 16 32l277 232q22 18 55 18q32 0 55 -18l277 -232q16 -14 16 -32t-10 -34t-26 -23.5t-33 2.5l-279 159l-279 -159q-17 -10 -33 -2.5t-26 23.5t-10 34z" />
<glyph unicode="&#x2dc;" d="M266.5 1173.5q1.5 19.5 17.5 32.5q60 50 108.5 70.5t91.5 20.5q37 0 71 -10t67 -21.5t65 -21.5t66 -10q30 0 65 10.5t70 31.5q17 10 33 3.5t29 -28.5t11.5 -41.5t-17.5 -32.5q-60 -50 -108.5 -70.5t-91.5 -20.5q-37 0 -71 10t-67 21.5t-65 21.5t-66 10q-30 0 -65 -10.5 t-70 -31.5q-17 -10 -33 -3.5t-29 28.5t-11.5 41.5z" />
<glyph unicode="&#x2000;" horiz-adv-x="898" />
<glyph unicode="&#x2001;" horiz-adv-x="1797" />
<glyph unicode="&#x2002;" horiz-adv-x="898" />
<glyph unicode="&#x2003;" horiz-adv-x="1797" />
<glyph unicode="&#x2004;" horiz-adv-x="599" />
<glyph unicode="&#x2005;" horiz-adv-x="449" />
<glyph unicode="&#x2006;" horiz-adv-x="299" />
<glyph unicode="&#x2007;" horiz-adv-x="299" />
<glyph unicode="&#x2008;" horiz-adv-x="224" />
<glyph unicode="&#x2009;" horiz-adv-x="359" />
<glyph unicode="&#x200a;" horiz-adv-x="99" />
<glyph unicode="&#x2010;" d="M170 582q0 38 14.5 53t48.5 15h762q34 0 48.5 -15t14.5 -53t-14.5 -53t-48.5 -15h-762q-34 0 -48.5 15t-14.5 53z" />
<glyph unicode="&#x2011;" d="M170 582q0 38 14.5 53t48.5 15h762q34 0 48.5 -15t14.5 -53t-14.5 -53t-48.5 -15h-762q-34 0 -48.5 15t-14.5 53z" />
<glyph unicode="&#x2012;" d="M170 582q0 38 14.5 53t48.5 15h762q34 0 48.5 -15t14.5 -53t-14.5 -53t-48.5 -15h-762q-34 0 -48.5 15t-14.5 53z" />
<glyph unicode="&#x2013;" d="M170 582q0 38 14.5 53t48.5 15h762q34 0 48.5 -15t14.5 -53t-14.5 -53t-48.5 -15h-762q-34 0 -48.5 15t-14.5 53z" />
<glyph unicode="&#x2014;" d="M-30 582q0 38 14.5 53t48.5 15h1162q34 0 48.5 -15t14.5 -53t-14.5 -53t-48.5 -15h-1162q-34 0 -48.5 15t-14.5 53z" />
<glyph unicode="&#x2018;" d="M425 710.5q-8 18.5 5 44.5l220 449q21 43 74 43q34 0 52 -18.5t10 -50.5l-101 -446q-9 -40 -52 -40h-175q-25 0 -33 18.5z" />
<glyph unicode="&#x2019;" d="M439 723l101 446q9 40 52 40h175q25 0 33 -18.5t-5 -44.5l-220 -449q-22 -43 -74 -43q-34 0 -52 18.5t-10 50.5z" />
<glyph unicode="&#x201a;" d="M439 -192l101 446q9 40 52 40h175q25 0 33 -18.5t-5 -44.5l-220 -449q-22 -43 -74 -43q-34 0 -52 18.5t-10 50.5z" />
<glyph unicode="&#x201c;" d="M220 710.5q-8 18.5 5 44.5l220 449q21 43 74 43q34 0 52 -18.5t10 -50.5l-101 -446q-9 -40 -52 -40h-175q-25 0 -33 18.5zM630 710.5q-8 18.5 5 44.5l220 449q21 43 74 43q34 0 52 -18.5t10 -50.5l-101 -446q-9 -40 -52 -40h-175q-25 0 -33 18.5z" />
<glyph unicode="&#x201d;" d="M234 723l101 446q9 40 52 40h175q25 0 33 -18.5t-5 -44.5l-220 -449q-22 -43 -74 -43q-34 0 -52 18.5t-10 50.5zM644 723l101 446q9 40 52 40h175q25 0 33 -18.5t-5 -44.5l-220 -449q-22 -43 -74 -43q-34 0 -52 18.5t-10 50.5z" />
<glyph unicode="&#x201e;" d="M234 -192l101 446q9 40 52 40h175q25 0 33 -18.5t-5 -44.5l-220 -449q-22 -43 -74 -43q-34 0 -52 18.5t-10 50.5zM644 -192l101 446q9 40 52 40h175q25 0 33 -18.5t-5 -44.5l-220 -449q-22 -43 -74 -43q-34 0 -52 18.5t-10 50.5z" />
<glyph unicode="&#x2022;" d="M350 599q0 55 20.5 103t56.5 84t84 56.5t103 20.5t103 -20.5t84 -56.5t56.5 -84t20.5 -103t-20.5 -103t-56.5 -84t-84 -56.5t-103 -20.5t-103 20.5t-84 56.5t-56.5 84t-20.5 103z" />
<glyph unicode="&#x2026;" d="M80 111q0 27 10.5 51.5t28.5 42.5t42.5 28.5t51.5 10.5t51.5 -10.5t42.5 -28.5t28.5 -42.5t10.5 -51.5t-10.5 -51.5t-28.5 -42.5t-42.5 -28.5t-51.5 -10.5t-51.5 10.5t-42.5 28.5t-28.5 42.5t-10.5 51.5zM481 111q0 27 10.5 51.5t28.5 42.5t42.5 28.5t51.5 10.5 t51.5 -10.5t42.5 -28.5t28.5 -42.5t10.5 -51.5t-10.5 -51.5t-28.5 -42.5t-42.5 -28.5t-51.5 -10.5t-51.5 10.5t-42.5 28.5t-28.5 42.5t-10.5 51.5zM882 111q0 27 10.5 51.5t28.5 42.5t42.5 28.5t51.5 10.5t51.5 -10.5t42.5 -28.5t28.5 -42.5t10.5 -51.5t-10.5 -51.5 t-28.5 -42.5t-42.5 -28.5t-51.5 -10.5t-51.5 10.5t-42.5 28.5t-28.5 42.5t-10.5 51.5z" />
<glyph unicode="&#x202f;" horiz-adv-x="359" />
<glyph unicode="&#x2039;" d="M452 548q-14 24 0 48l198 326q13 21 39 23.5t51 -8.5q13 -6 24 -14t17 -18.5t6.5 -22.5t-7.5 -25l-174 -285l174 -285q8 -13 7.5 -25t-6.5 -22.5t-17 -18.5t-24 -14q-25 -11 -51 -8.5t-39 23.5z" />
<glyph unicode="&#x203a;" d="M440.5 262q-0.5 12 7.5 25l174 285l-174 285q-8 13 -7.5 25t6.5 22.5t17 18.5t24 14q25 11 51 8.5t39 -23.5l198 -326q14 -24 0 -48l-198 -326q-13 -21 -39 -23.5t-51 8.5q-13 6 -24 14t-17 18.5t-6.5 22.5z" />
<glyph unicode="&#x205f;" horiz-adv-x="449" />
<glyph unicode="&#x20ac;" d="M60 442q0 38 14.5 53t48.5 15h80q-4 41 -3.5 88.5t4.5 85.5h-81q-34 0 -48.5 15t-14.5 53t14.5 53t48.5 15h100q21 90 60 162t93.5 122.5t124.5 77.5t153 27q87 0 154.5 -32.5t115.5 -89.5v57q0 35 16.5 50t58.5 15t58.5 -15t16.5 -50v-330q0 -35 -16.5 -50t-58.5 -15 t-58.5 15t-16.5 50q0 49 -16.5 94t-49 79t-81 54t-113.5 20q-104 0 -174.5 -63t-104.5 -178h290q34 0 48.5 -15t14.5 -53t-14.5 -53t-48.5 -15h-313q-4 -42 -4.5 -87t3.5 -87h314q34 0 48.5 -15t14.5 -53t-14.5 -53t-48.5 -15h-294q31 -118 99 -183t174 -65q92 0 175.5 28.5 t155.5 84.5q20 16 44 14t46 -39q21 -35 17 -60.5t-30 -44.5q-95 -66 -198 -98.5t-210 -32.5q-87 0 -158 27.5t-126 78.5t-92.5 124.5t-57.5 165.5h-97q-34 0 -48.5 15t-14.5 53z" />
<glyph unicode="&#x2122;" d="M60 1252q0 34 14.5 47t48.5 13h382q34 0 48.5 -13t14.5 -47t-14.5 -46.5t-48.5 -12.5h-129v-380q0 -35 -13.5 -50t-48.5 -15t-48.5 15t-13.5 50v380h-129q-34 0 -48.5 12.5t-14.5 46.5zM665 813l30 444q2 35 18 50t51 15q24 0 39.5 -6t22.5 -20l142 -299l142 299 q7 14 22.5 20t39.5 6q35 0 51 -15t18 -50l30 -444q2 -35 -10 -50t-47 -15t-48 15t-15 50l-18 259l-93 -192q-12 -24 -31.5 -36t-40.5 -12t-41 12t-31 36l-94 192l-17 -259q-2 -35 -15 -50t-48 -15t-47 15t-10 50z" />
<glyph unicode="&#x25fc;" horiz-adv-x="925" d="M0 0v925h925v-925h-925z" />
<glyph unicode="&#xfb01;" d="M57 68q0 38 14.5 53t48.5 15h128v652h-128q-34 0 -48.5 15t-14.5 53t14.5 53t48.5 15h128v43q0 82 23.5 147t68.5 110t110.5 69t149.5 24q71 0 138.5 -14t127.5 -37q27 -11 40.5 -32.5t4.5 -59.5q-10 -41 -29 -51.5t-45 -0.5q-59 23 -118 36t-119 13q-106 0 -154 -57 t-48 -160v-30h552q34 0 48.5 -15t14.5 -53v-720h121q34 0 48.5 -15t14.5 -53t-14.5 -53t-48.5 -15h-384q-34 0 -48.5 15t-14.5 53t14.5 53t48.5 15h113v652h-465v-652h116q34 0 48.5 -15t14.5 -53t-14.5 -53t-48.5 -15h-394q-34 0 -48.5 15t-14.5 53z" />
<glyph unicode="&#xfb02;" d="M57 68q0 38 14.5 53t48.5 15h128v572h-128q-34 0 -48.5 15t-14.5 53t14.5 53t48.5 15h128v123q0 165 89 255t258 90h355q34 0 48.5 -15t14.5 -53v-1108h121q34 0 48.5 -15t14.5 -53t-14.5 -53t-48.5 -15h-384q-34 0 -48.5 15t-14.5 53t14.5 53t48.5 15h113v1040h-258 q-106 0 -156.5 -57.5t-50.5 -160.5v-114h216q34 0 48.5 -15t14.5 -53t-14.5 -53t-48.5 -15h-216v-572h116q34 0 48.5 -15t14.5 -53t-14.5 -53t-48.5 -15h-394q-34 0 -48.5 15t-14.5 53z" />
</font>
</defs>
</svg>
